<?xml version="1.0" standalone="no"?>
<!DOCTYPE svg PUBLIC "-//W3C//DTD SVG 1.1//EN" "http://www.w3.org/Graphics/SVG/1.1/DTD/svg11.dtd" >
<svg>
<metadata>
Created by FontForge 20120731 at Tue Aug 27 20:54:41 2019
 By www
(c) Fabian Fohrer &#38; Fabian Huber 2015
</metadata>
<defs>
<font id="Moderat-Regular" horiz-adv-x="830" >
  <font-face 
    font-family="Moderat"
    font-weight="400"
    font-stretch="normal"
    units-per-em="1000"
    panose-1="0 0 5 0 0 0 0 0 0 0"
    ascent="800"
    descent="-200"
    x-height="500"
    cap-height="700"
    bbox="-188 -279 1166 909"
    underline-thickness="50"
    underline-position="-50"
    unicode-range="U+0020-FB02"
  />
<missing-glyph 
d="M780 350q0 -150 -105 -255t-255 -105t-255 106t-105 254q0 149 105.5 254.5t254.5 105.5q151 0 255.5 -105.5t104.5 -254.5zM232 533v-45h44v-128h46v128h44v45h-134zM474 533v-45h45v-128h45v128h45v45h-135zM420 81q109 0 187 76t81 183l-46 8q0 -92 -65 -156.5
t-157 -64.5t-156.5 64.5t-64.5 156.5l-46 -8q3 -107 81 -183t186 -76z" />
    <glyph glyph-name="onequarter" unicode="&#x31;&#x2044;&#x34;" horiz-adv-x="799" 
d="M139 255v258h-89v56h55q17 0 27.5 11t10.5 28v32h66l1 -385h-71zM689 640l-498 -640h-81l498 640h81zM690 140h59v-59h-59v-81h-64v81h-187v47l159 257h92v-245zM521 140h105v156h-9z" />
    <glyph glyph-name="onehalf" unicode="&#x31;&#x2044;&#x32;" horiz-adv-x="847" 
d="M139 255v258h-89v56h55q17 0 27.5 11t10.5 28v32h66l1 -385h-71zM689 640l-498 -640h-81l498 640h81zM681 147q-45 -27 -64.5 -44t-19.5 -37h191v-66h-269v36q0 39 19.5 70.5t39.5 46.5t54 35q5 3 18 10.5t19 11.5l16.5 11t15 12t10.5 12t8.5 14.5t2.5 15.5q0 22 -17 35
t-44 13q-33 0 -52 -18.5t-19 -50.5h-70q0 50 35.5 92t102.5 42q57 0 95 -31t38 -80q0 -24 -8.5 -43t-28 -36t-32.5 -25.5t-41 -25.5z" />
    <glyph glyph-name="threequarters" unicode="&#x33;&#x2044;&#x34;" horiz-adv-x="852" 
d="M259 458q28 -9 46 -33t18 -57q0 -49 -37 -82.5t-98 -33.5q-63 0 -100.5 36t-37.5 92h67q2 -28 20.5 -47t51.5 -19q31 0 48 16t17 41q0 26 -18.5 42t-56.5 16h-26v57h23q67 0 67 50q0 44 -56 44q-54 0 -59 -40h-66q0 44 36.5 73.5t90.5 29.5q52 0 86.5 -27t34.5 -71
q0 -55 -51 -81v-6zM742 640l-498 -640h-81l498 640h81zM743 140h59v-59h-59v-81h-64v81h-187v47l159 257h92v-245zM574 140h105v156h-9z" />
    <glyph glyph-name="uni2153" unicode="&#x31;&#x2044;&#x33;" horiz-adv-x="842" 
d="M139 255v258h-89v56h55q17 0 27.5 11t10.5 28v32h66l1 -385h-71zM689 640l-498 -640h-81l498 640h81zM728 203q28 -9 46 -33t18 -57q0 -49 -37 -82.5t-98 -33.5q-63 0 -100.5 36t-37.5 92h67q2 -28 20.5 -47t51.5 -19q31 0 48 16t17 41q0 26 -18.5 42t-56.5 16h-26v57h23
q67 0 67 50q0 44 -56 44q-54 0 -59 -40h-66q0 44 36.5 73.5t90.5 29.5q52 0 86.5 -27t34.5 -71q0 -55 -51 -81v-6z" />
    <glyph glyph-name="uni2154" unicode="&#x32;&#x2044;&#x33;" horiz-adv-x="930" 
d="M212 402q-45 -27 -64.5 -44t-19.5 -37h191v-66h-269v36q0 39 19.5 70.5t39.5 46.5t54 35q5 3 18 10.5t19 11.5l16.5 11t15 12t10.5 12t8.5 14.5t2.5 15.5q0 22 -17 35t-44 13q-33 0 -52 -18.5t-19 -50.5h-70q0 50 35.5 92t102.5 42q57 0 95 -31t38 -80q0 -24 -8.5 -43
t-28 -36t-32.5 -25.5t-41 -25.5zM777 640l-498 -640h-81l498 640h81zM816 203q28 -9 46 -33t18 -57q0 -49 -37 -82.5t-98 -33.5q-63 0 -100.5 36t-37.5 92h67q2 -28 20.5 -47t51.5 -19q31 0 48 16t17 41q0 26 -18.5 42t-56.5 16h-26v57h23q67 0 67 50q0 44 -56 44
q-54 0 -59 -40h-66q0 44 36.5 73.5t90.5 29.5q52 0 86.5 -27t34.5 -71q0 -55 -51 -81v-6z" />
    <glyph glyph-name="arrowleft" unicode="&#x3c;&#x2014;" horiz-adv-x="863" 
d="M803 350v-79h-622l202 -200l-58 -58l-285 285v26l285 285l58 -58l-203 -201h623z" />
    <glyph glyph-name="arrowright" unicode="&#x2d;&#x3e;" horiz-adv-x="863" 
d="M538 609l285 -285v-26l-285 -285l-58 58l202 200h-622v79h623l-203 201z" />
    <glyph glyph-name="smileface" unicode="&#x3a;&#x29;" horiz-adv-x="840" 
d="M780 350q0 -150 -105 -255t-255 -105t-255 106t-105 254q0 149 105.5 254.5t254.5 105.5q151 0 255.5 -105.5t104.5 -254.5zM232 533v-45h44v-128h46v128h44v45h-134zM474 533v-45h45v-128h45v128h45v45h-135zM420 81q109 0 187 76t81 183l-46 8q0 -92 -65 -156.5
t-157 -64.5t-156.5 64.5t-64.5 156.5l-46 -8q3 -107 81 -183t186 -76z" />
    <glyph glyph-name="fi" unicode="fi" horiz-adv-x="597" 
d="M473 715q26 0 45 -18.5t19 -45.5q0 -26 -19 -45t-45 -19q-27 0 -46 19t-19 45q0 27 19 45.5t46 18.5zM516 500v-500h-88v430h-220v-430h-84v430h-74v70h74v49q0 70 35 113t99 43q51 0 88 -32l-38 -62q-17 14 -40 14q-60 0 -60 -84v-41h308z" />
    <glyph glyph-name="fl" unicode="fl" horiz-adv-x="605" 
d="M327 705q40 0 75 -9t56.5 -21.5t37.5 -24.5t22 -21l7 -9v-620h-87v590q-25 38 -109 38q-121 0 -121 -113v-15h120v-70h-120v-430h-84v430h-74v70h74v23q0 84 53 133t150 49zM440 585v2v-2z" />
    <glyph glyph-name="f_f" unicode="ff" horiz-adv-x="693" 
d="M506 541v-41h120v-70h-120v-430h-84v430h-214v-430h-84v430h-74v70h74v49q0 70 35 113t99 43q51 0 88 -32l-38 -62q-17 14 -40 14q-60 0 -60 -84v-41h214v49q0 70 35 113t99 43q51 0 88 -32l-38 -62q-17 14 -40 14q-60 0 -60 -84z" />
    <glyph glyph-name="f_f_i" unicode="ffi" horiz-adv-x="895" 
d="M771 715q26 0 45 -18.5t19 -45.5q0 -26 -19 -45t-45 -19q-27 0 -46 19t-19 45q0 27 19 45.5t46 18.5zM814 500v-500h-88v430h-220v-430h-84v430h-214v-430h-84v430h-74v70h74v49q0 70 35 113t99 43q51 0 88 -32l-38 -62q-17 14 -40 14q-60 0 -60 -84v-41h214v49
q0 70 35 113t99 43q51 0 88 -32l-38 -62q-17 14 -40 14q-60 0 -60 -84v-41h308z" />
    <glyph glyph-name="f_f_j" unicode="ffj" horiz-adv-x="896" 
d="M772 715q26 0 45 -18.5t19 -45.5q0 -26 -19 -45t-45 -19q-27 0 -46 19t-19 45q0 27 19 45.5t46 18.5zM813 500v-549q0 -69 -38 -112.5t-102 -43.5q-51 0 -88 32l38 61q18 -14 40 -14q63 0 63 85v471h-220v-430h-84v430h-214v-430h-84v430h-74v70h74v49q0 70 35 113t99 43
q51 0 88 -32l-38 -62q-17 14 -40 14q-60 0 -60 -84v-41h214v49q0 70 35 113t99 43q51 0 88 -32l-38 -62q-17 14 -40 14q-60 0 -60 -84v-41h307z" />
    <glyph glyph-name="f_f_l" unicode="ffl" horiz-adv-x="903" 
d="M625 705q40 0 75 -9t56.5 -21.5t37.5 -24.5t22 -21l7 -9v-620h-87v590q-25 38 -109 38q-121 0 -121 -113v-15h120v-70h-120v-430h-84v430h-214v-430h-84v430h-74v70h74v49q0 70 35 113t99 43q51 0 88 -32l-38 -62q-17 14 -40 14q-60 0 -60 -84v-41h214v23q0 84 53 133
t150 49zM738 585v2v-2z" />
    <glyph glyph-name="f_j" unicode="fj" horiz-adv-x="598" 
d="M474 715q26 0 45 -18.5t19 -45.5q0 -26 -19 -45t-45 -19q-27 0 -46 19t-19 45q0 27 19 45.5t46 18.5zM515 500v-549q0 -69 -38 -112.5t-102 -43.5q-51 0 -88 32l38 61q18 -14 40 -14q63 0 63 85v471h-220v-430h-84v430h-74v70h74v49q0 70 35 113t99 43q51 0 88 -32
l-38 -62q-17 14 -40 14q-60 0 -60 -84v-41h307z" />
    <glyph glyph-name=".notdef" 
d="M780 350q0 -150 -105 -255t-255 -105t-255 106t-105 254q0 149 105.5 254.5t254.5 105.5q151 0 255.5 -105.5t104.5 -254.5zM232 533v-45h44v-128h46v128h44v45h-134zM474 533v-45h45v-128h45v128h45v45h-135zM420 81q109 0 187 76t81 183l-46 8q0 -92 -65 -156.5
t-157 -64.5t-156.5 64.5t-64.5 156.5l-46 -8q3 -107 81 -183t186 -76z" />
    <glyph glyph-name=".null" horiz-adv-x="0" 
 />
    <glyph glyph-name="nonmarkingreturn" horiz-adv-x="333" 
 />
    <glyph glyph-name="space" unicode=" " horiz-adv-x="270" 
 />
    <glyph glyph-name="exclam" unicode="!" horiz-adv-x="260" 
d="M78 700h105l-20 -509h-65zM130 -5q-25 0 -42.5 17.5t-17.5 42.5t17.5 42.5t42.5 17.5t42.5 -17.5t17.5 -42.5t-17.5 -42.5t-42.5 -17.5z" />
    <glyph glyph-name="quotedbl" unicode="&#x22;" horiz-adv-x="400" 
d="M165 605l-25 -135h-40l-25 135q-7 33 -7 40q0 26 14 42t38 16t38 -16t14 -42q0 -7 -7 -40zM325 605l-25 -135h-40l-25 135q-7 33 -7 40q0 26 14 42t38 16t38 -16t14 -42q0 -7 -7 -40z" />
    <glyph glyph-name="numbersign" unicode="#" horiz-adv-x="658" 
d="M598 426h-101l-33 -166h92v-74h-107l-37 -186h-81l37 186h-138l-37 -186h-81l37 186h-94v74h109l33 166h-100v74h115l40 200h81l-40 -200h138l40 200h81l-40 -200h86v-74zM383 260l33 166h-138l-33 -166h138z" />
    <glyph glyph-name="dollar" unicode="$" horiz-adv-x="577" 
d="M517 166q0 -74 -54 -119t-137 -51v-86h-75v89q-86 14 -138.5 69t-52.5 124h90q0 -35 28 -64.5t73 -42.5v213q-42 17 -68.5 30.5t-53 34.5t-39 48.5t-12.5 62.5q0 70 48.5 115t124.5 54v87h75v-88q80 -11 126.5 -61.5t46.5 -110.5h-90q0 27 -22.5 52t-60.5 35v-195
q39 -15 67 -29t59.5 -37t48 -56t16.5 -74zM167 481q0 -55 84 -91v169q-38 -6 -61 -26.5t-23 -51.5zM326 79q101 11 101 88q0 36 -24 58t-77 44v-190z" />
    <glyph glyph-name="percent" unicode="%" horiz-adv-x="779" 
d="M210 345q-62 0 -106 44.5t-44 105.5t44 105.5t106 44.5q61 0 105.5 -44.5t44.5 -105.5t-44.5 -105.5t-105.5 -44.5zM657 640h-94l-446 -640h94zM210 425q30 0 50 20t20 50t-20 50t-50 20t-50 -20t-20 -50t20 -50t50 -20zM569 -5q-61 0 -105.5 44.5t-44.5 105.5
t44.5 105.5t105.5 44.5t105.5 -44.5t44.5 -105.5t-44.5 -105.5t-105.5 -44.5zM569 75q30 0 50 20t20 50t-20 50t-50 20t-50 -20t-20 -50t20 -50t50 -20z" />
    <glyph glyph-name="ampersand" unicode="&#x26;" horiz-adv-x="683" 
d="M633 0h-116l-72 80q-72 -85 -175 -85q-90 0 -150 53.5t-60 133.5q0 58 32 101t92 87q-80 89 -80 166q0 69 47.5 119t129.5 50q83 0 127.5 -50t44.5 -113q0 -55 -36.5 -98t-103.5 -89l119 -131l52 106h94l-86 -173zM279 620q-37 0 -61 -24t-24 -57q0 -48 61 -120
q69 46 87 66q21 25 21 53q0 33 -23.5 57.5t-60.5 24.5zM268 80q68 0 118 66l-145 162q-46 -32 -68.5 -59t-22.5 -63q0 -45 33.5 -75.5t84.5 -30.5z" />
    <glyph glyph-name="quotesingle" unicode="'" horiz-adv-x="240" 
d="M165 605l-25 -135h-40l-25 135q-7 33 -7 40q0 26 14 42t38 16t38 -16t14 -42q0 -7 -7 -40z" />
    <glyph glyph-name="parenleft" unicode="(" horiz-adv-x="328" 
d="M273 -114l-55 -55q-168 183 -168 479q0 297 168 480l55 -56q-139 -151 -139 -424q0 -271 139 -424z" />
    <glyph glyph-name="parenright" unicode=")" horiz-adv-x="328" 
d="M40 -114q139 153 139 424q0 273 -139 424l55 56q168 -183 168 -480q0 -296 -168 -479z" />
    <glyph glyph-name="asterisk" unicode="*" horiz-adv-x="409" 
d="M359 488l-33 -56l-92 57l3 -109h-66l3 108l-92 -56l-32 56l96 52l-96 52l33 56l91 -57l-3 109h66l-3 -109l92 56l32 -56l-95 -51z" />
    <glyph glyph-name="plus" unicode="+" horiz-adv-x="555" 
d="M495 350v-76h-178v-180h-78v180h-179v76h179v179h78v-179h178z" />
    <glyph glyph-name="comma" unicode="," horiz-adv-x="240" 
d="M119 113q29 0 45 -22t16 -58q0 -43 -22 -81.5t-44 -55.5l-22 -17l-27 28q39 34 49 90q-23 2 -38.5 18.5t-15.5 39.5q0 25 17 41.5t42 16.5z" />
    <glyph glyph-name="hyphen" unicode="-" horiz-adv-x="480" 
d="M60 349h360v-76h-360v76z" />
    <glyph glyph-name="period" unicode="." horiz-adv-x="240" 
d="M120 -5q-25 0 -42.5 17.5t-17.5 42.5t17.5 42.5t42.5 17.5t42.5 -17.5t17.5 -42.5t-17.5 -42.5t-42.5 -17.5z" />
    <glyph glyph-name="slash" unicode="/" horiz-adv-x="507" 
d="M477 750l-358 -800h-89l358 800h89z" />
    <glyph glyph-name="zero" unicode="0" horiz-adv-x="604" 
d="M303 -5q-105 0 -170 90t-65 236t65 235.5t169 89.5q105 0 172 -90t67 -236q0 -145 -67 -235t-171 -90zM302 81q71 0 112 68t41 170q0 104 -41.5 172.5t-111.5 68.5q-69 0 -108 -68t-39 -172q0 -105 39 -172t108 -67z" />
    <glyph glyph-name="one" unicode="1" horiz-adv-x="361" 
d="M187 0v468h-122v71h73q24 0 39.5 15.5t15.5 40.5v45h82l1 -640h-89z" />
    <glyph glyph-name="two" unicode="2" horiz-adv-x="570" 
d="M322 238q-79 -49 -113.5 -81.5t-34.5 -72.5h311v-84h-405v51q0 42 10 76t23.5 56t38 43t41.5 32t47 28q6 3 9 5q39 22 59.5 35t45 34t35.5 44t11 51q0 45 -29 75t-77 30q-57 0 -90.5 -40t-33.5 -85h-89q0 34 12.5 69.5t37 68t67 53t95.5 20.5q86 0 141.5 -50t55.5 -136
q0 -41 -13 -75t-39.5 -60.5t-47.5 -42t-55 -36.5q-9 -5 -13 -8z" />
    <glyph glyph-name="three" unicode="3" horiz-adv-x="549" 
d="M380 339q41 -17 67.5 -58.5t26.5 -93.5q0 -79 -58 -135.5t-153 -56.5q-93 0 -150.5 53.5t-57.5 130.5h85q3 -39 35 -70.5t87 -31.5q57 0 88.5 34.5t31.5 81.5q0 45 -30 77t-89 32h-33v75h29q46 0 75.5 26t29.5 68q0 39 -26.5 65.5t-73.5 26.5q-40 0 -69 -20t-33 -53h-83
q0 68 55 112t132 44q79 0 131.5 -46.5t52.5 -117.5q0 -43 -19.5 -77.5t-50.5 -53.5v-12z" />
    <glyph glyph-name="four" unicode="4" horiz-adv-x="580" 
d="M413 209h107v-79h-107v-130h-86v130h-282v61l233 450h135v-432zM148 209h179v337h-9z" />
    <glyph glyph-name="five" unicode="5" horiz-adv-x="563" 
d="M278 427q94 0 152 -58t58 -159t-59 -158t-152 -57q-101 0 -156.5 62.5t-55.5 137.5h87q0 -43 35.5 -80.5t92.5 -37.5q54 0 88 35.5t34 98.5q0 60 -33 99.5t-100 39.5q-87 0 -120 -64l-71 23l30 332h350v-84h-278l-18 -164q41 34 116 34z" />
    <glyph glyph-name="six" unicode="6" horiz-adv-x="550" 
d="M282 409q77 0 137.5 -58t60.5 -150q0 -93 -61.5 -149.5t-148.5 -56.5t-148.5 56.5t-61.5 152.5q0 53 24 105q36 77 188 332h105l-157 -247q20 15 62 15zM270 77q54 0 88 34t34 90t-34.5 90.5t-87.5 34.5t-87.5 -34.5t-34.5 -90.5t34.5 -90t87.5 -34z" />
    <glyph glyph-name="seven" unicode="7" horiz-adv-x="505" 
d="M50 641h405v-51q-129 -119 -177 -255.5t-56 -334.5h-89q7 209 61 348t133 209h-277v84z" />
    <glyph glyph-name="eight" unicode="8" horiz-adv-x="582" 
d="M393 347q49 -15 81.5 -59t32.5 -105q0 -84 -60 -136t-157 -52t-156 52t-59 135q0 63 33 106.5t81 58.5v8q-38 16 -61.5 52t-23.5 81q0 69 55 113.5t132 44.5t132 -44.5t55 -113.5q0 -45 -23.5 -81t-61.5 -52v-8zM291 573q-44 0 -72.5 -25t-28.5 -66q0 -43 30.5 -69
t69.5 -26t70.5 26t31.5 69q0 41 -28.5 66t-72.5 25zM289 69q58 0 92.5 36.5t34.5 79.5t-33 79t-93 36t-92 -36t-32 -80q0 -43 32.5 -79t90.5 -36z" />
    <glyph glyph-name="nine" unicode="9" horiz-adv-x="530" 
d="M258 232q-77 0 -137.5 58t-60.5 150q0 93 61.5 149.5t148.5 56.5t148.5 -56.5t61.5 -152.5q0 -53 -24 -105q-36 -77 -188 -332h-105l157 247q-20 -15 -62 -15zM270 564q-54 0 -88 -34t-34 -90t34.5 -90.5t87.5 -34.5t87.5 34.5t34.5 90.5t-34.5 90t-87.5 34z" />
    <glyph glyph-name="colon" unicode=":" horiz-adv-x="240" 
d="M120 385q-25 0 -42.5 17.5t-17.5 42.5t17.5 42.5t42.5 17.5t42.5 -17.5t17.5 -42.5t-17.5 -42.5t-42.5 -17.5zM120 -5q-25 0 -42.5 17.5t-17.5 42.5t17.5 42.5t42.5 17.5t42.5 -17.5t17.5 -42.5t-17.5 -42.5t-42.5 -17.5z" />
    <glyph glyph-name="semicolon" unicode=";" horiz-adv-x="240" 
d="M120 385q-25 0 -42.5 17.5t-17.5 42.5t17.5 42.5t42.5 17.5t42.5 -17.5t17.5 -42.5t-17.5 -42.5t-42.5 -17.5zM119 113q29 0 45 -22t16 -58q0 -43 -22 -81.5t-44 -55.5l-22 -17l-27 28q39 34 49 90q-23 2 -38.5 18.5t-15.5 39.5q0 25 17 41.5t42 16.5z" />
    <glyph glyph-name="less" unicode="&#x3c;" horiz-adv-x="550" 
d="M480 605v-105l-307 -189v-18l307 -188v-105l-430 272v60z" />
    <glyph glyph-name="equal" unicode="=" horiz-adv-x="595" 
d="M60 415h475v-76h-475v76zM60 255h475v-76h-475v76z" />
    <glyph glyph-name="greater" unicode="&#x3e;" horiz-adv-x="550" 
d="M70 605l430 -273v-60l-430 -272v105l307 188v18l-307 189v105z" />
    <glyph glyph-name="question" unicode="?" horiz-adv-x="431" 
d="M149 257q0 48 18.5 86t36.5 54.5t48 37.5q20 14 32 25t22 30.5t10 42.5q0 39 -23 70.5t-77 31.5q-87 0 -101 -97h-82q0 28 9 56t28.5 55t57 43.5t86.5 16.5q89 0 136.5 -50.5t47.5 -126.5q0 -41 -15.5 -73.5t-30.5 -47t-38 -30.5q-30 -22 -44 -34t-26.5 -36t-12.5 -56
v-62h-82v64zM197 -5q-25 0 -42.5 17.5t-17.5 42.5t17.5 42.5t42.5 17.5t42.5 -17.5t17.5 -42.5t-17.5 -42.5t-42.5 -17.5z" />
    <glyph glyph-name="at" unicode="@" horiz-adv-x="1000" 
d="M500 705q87 0 165 -27.5t139.5 -80t98.5 -137t37 -189.5q0 -107 -47 -181.5t-132 -74.5q-38 0 -78 19t-60 58q-44 -77 -152 -77q-90 0 -152.5 65.5t-62.5 174.5q0 104 63.5 172t151.5 68q83 0 131 -61h16l17 56h58v-330q0 -28 20 -47.5t50 -19.5q34 0 55.5 29.5t28 66
t6.5 82.5q0 115 -49 198t-127.5 122.5t-176.5 39.5q-144 0 -248.5 -104.5t-104.5 -273.5q0 -113 51 -199.5t131.5 -129.5t174.5 -43q109 0 197 49l51 -52q-113 -71 -248 -71q-82 0 -161 30.5t-142.5 86.5t-102 142.5t-38.5 189.5q0 102 38 188.5t100.5 142.5t141 87
t160.5 31zM476 97q57 0 94.5 37.5t37.5 110.5q0 81 -37.5 124.5t-94.5 43.5q-49 0 -90.5 -44.5t-41.5 -113.5q0 -75 40.5 -116.5t91.5 -41.5z" />
    <glyph glyph-name="A" unicode="A" horiz-adv-x="638" 
d="M521 0l-59 183h-286l-59 -183h-97l236 700h126l236 -700h-97zM313 606l-109 -338h230l-109 338h-12z" />
    <glyph glyph-name="B" unicode="B" horiz-adv-x="614" 
d="M437 364q50 -18 83.5 -63t33.5 -108q0 -83 -60.5 -138t-171.5 -55h-242v700h221q96 0 158 -48t62 -129q0 -50 -23.5 -89t-60.5 -58v-12zM165 618v-215h131q68 0 101.5 29.5t33.5 79.5q0 106 -140 106h-126zM312 82q151 0 151 120q0 61 -40 91t-111 30h-147v-241h147z" />
    <glyph glyph-name="C" unicode="C" horiz-adv-x="713" 
d="M663 200q-32 -90 -110.5 -147.5t-175.5 -57.5q-131 0 -224 100.5t-93 254.5t93 254.5t223 100.5q96 0 175 -56.5t112 -148.5h-103q-25 55 -73.5 85.5t-110.5 30.5q-98 0 -159.5 -73.5t-61.5 -192.5t61.5 -192.5t160.5 -73.5q63 0 111 31t72 85h103z" />
    <glyph glyph-name="D" unicode="D" horiz-adv-x="687" 
d="M302 700q139 0 232 -98t93 -252t-92.5 -252t-232.5 -98h-222v700h222zM302 88q108 0 168 72t60 190t-60.5 190t-167.5 72h-129v-524h129z" />
    <glyph glyph-name="E" unicode="E" horiz-adv-x="611" 
d="M173 88h358v-88h-451v700h441v-87h-348v-215h318v-87h-318v-223z" />
    <glyph glyph-name="F" unicode="F" horiz-adv-x="531" 
d="M501 615h-329v-218h279v-85h-279v-312h-92v700h421v-85z" />
    <glyph glyph-name="G" unicode="G" horiz-adv-x="731" 
d="M374 280v82h287v-362h-55l-18 65h-13q-80 -70 -190 -70q-141 0 -233 100.5t-92 254.5q0 153 92 254t231 101q64 0 118 -23t86 -57.5t51 -67t23 -57.5h-98q-18 45 -66.5 83t-120.5 38q-100 0 -160.5 -76.5t-60.5 -194.5t60.5 -194.5t164.5 -76.5q59 0 111.5 25.5
t81.5 67.5v108h-199z" />
    <glyph glyph-name="H" unicode="H" horiz-adv-x="680" 
d="M507 700h93v-700h-93v310h-334v-310h-93v700h93v-303h334v303z" />
    <glyph glyph-name="I" unicode="I" horiz-adv-x="253" 
d="M173 700v-700h-93v700h93z" />
    <glyph glyph-name="J" unicode="J" horiz-adv-x="567" 
d="M150 200q0 -57 38 -88t90 -31q115 0 115 149v470h94v-460q0 -123 -58.5 -184t-151.5 -61q-92 0 -154.5 54.5t-62.5 150.5h90z" />
    <glyph glyph-name="K" unicode="K" horiz-adv-x="626" 
d="M586 0h-110l-248 317h-59v-317h-89v700h89v-297h59l219 297h109l-248 -340z" />
    <glyph glyph-name="L" unicode="L" horiz-adv-x="591" 
d="M172 88h359v-88h-451v700h92v-612z" />
    <glyph glyph-name="M" unicode="M" horiz-adv-x="840" 
d="M624 700h136v-700h-87v567h-11l-187 -517h-111l-186 517h-11v-567h-87v700h136l198 -549h12z" />
    <glyph glyph-name="N" unicode="N" horiz-adv-x="712" 
d="M544 700h88v-700h-125l-329 557h-11v-557h-87v700h112l340 -570h12v570z" />
    <glyph glyph-name="O" unicode="O" horiz-adv-x="804" 
d="M403 -5q-140 0 -241.5 102t-101.5 253t101 253t241 102t241 -102t101 -253t-100.5 -253t-240.5 -102zM403 83q109 0 178 75.5t69 191.5t-69.5 191.5t-178.5 75.5q-108 0 -177.5 -75.5t-69.5 -191.5t69.5 -191.5t178.5 -75.5z" />
    <glyph glyph-name="P" unicode="P" horiz-adv-x="594" 
d="M322 700q92 0 157 -55t65 -150q0 -96 -66 -155.5t-156 -59.5h-157v-280h-85v700h242zM312 362q58 0 101 34t43 99q0 64 -42 93.5t-102 29.5h-147v-256h147z" />
    <glyph glyph-name="Q" unicode="Q" horiz-adv-x="804" 
d="M685 -11l32 -47l12 -18q-56 -44 -138 -44q-77 0 -129 33t-70 84q-137 5 -234.5 105t-97.5 248q0 151 101 252t241 101t241 -101t101 -252q0 -127 -73 -220.5t-186 -122.5q30 -43 112 -43q29 0 51 6t30 12zM403 85q109 0 178 74.5t69 190.5t-69.5 190.5t-178.5 74.5
q-108 0 -177.5 -74.5t-69.5 -190.5t69.5 -190.5t178.5 -74.5z" />
    <glyph glyph-name="R" unicode="R" horiz-adv-x="637" 
d="M577 0h-101l-185 280h-126v-280h-85v700h242q92 0 157 -55t65 -150q0 -77 -44 -131.5t-112 -74.5zM165 618v-256h147q58 0 101 34t43 99q0 64 -42 93.5t-102 29.5h-147z" />
    <glyph glyph-name="S" unicode="S" horiz-adv-x="613" 
d="M553 182q0 -86 -67.5 -136.5t-164.5 -50.5q-113 0 -187 65t-74 151h90q4 -57 55 -93.5t117 -36.5q54 0 96 25t42 75q0 44 -35.5 70.5t-118.5 59.5q-43 17 -63.5 26t-58 30t-56 40t-34 49.5t-15.5 65.5q0 81 66 132.5t160 51.5q101 0 164.5 -59.5t63.5 -131.5h-90
q-5 44 -42 74.5t-99 30.5q-57 0 -93.5 -26.5t-36.5 -65.5q0 -64 141 -121q7 -4 11 -5q33 -14 46 -19.5t43.5 -20t45 -25t36.5 -28.5t32 -35.5t18 -41t8 -50.5z" />
    <glyph glyph-name="T" unicode="T" horiz-adv-x="532" 
d="M502 700v-87h-189v-613h-94v613h-189v87h472z" />
    <glyph glyph-name="U" unicode="U" horiz-adv-x="704" 
d="M634 700v-400q0 -153 -78.5 -229t-202.5 -76t-203.5 76t-79.5 229v400h94v-390q0 -117 52 -172t137 -55t136 55t51 172v390h94z" />
    <glyph glyph-name="V" unicode="V" horiz-adv-x="678" 
d="M541 700h97l-224 -700h-150l-224 700h98l194 -613h14z" />
    <glyph glyph-name="W" unicode="W" horiz-adv-x="952" 
d="M812 700h95l-172 -700h-136l-117 527h-12l-117 -527h-136l-172 700h95l141 -597h12l121 547h124l121 -547h12z" />
    <glyph glyph-name="X" unicode="X" horiz-adv-x="661" 
d="M512 0l-173 273h-16l-174 -273h-109l234 361l-220 339h105l163 -253h16l163 253h106l-220 -339l234 -361h-109z" />
    <glyph glyph-name="Y" unicode="Y" horiz-adv-x="653" 
d="M502 700h111l-240 -349v-351h-93v351l-240 349h110l169 -254h14z" />
    <glyph glyph-name="Z" unicode="Z" horiz-adv-x="601" 
d="M189 88h352v-88h-481v52l347 561h-327v87h451v-51z" />
    <glyph glyph-name="bracketleft" unicode="[" horiz-adv-x="321" 
d="M60 773h171v-73h-93v-796h103v-73h-181v942z" />
    <glyph glyph-name="backslash" unicode="\" horiz-adv-x="537" 
d="M60 750h89l358 -800h-89z" />
    <glyph glyph-name="bracketright" unicode="]" horiz-adv-x="321" 
d="M251 773v-942h-181v73h103v796h-93v73h171z" />
    <glyph glyph-name="asciicircum" unicode="^" horiz-adv-x="555" 
d="M400 360l-114 216h-16l-115 -216h-95l188 340h60l187 -340h-95z" />
    <glyph glyph-name="underscore" unicode="_" horiz-adv-x="555" 
d="M60 0h435v-76h-435v76z" />
    <glyph glyph-name="grave" unicode="`" horiz-adv-x="325" 
d="M187 680l58 -125h-61l-104 125h107z" />
    <glyph glyph-name="a" unicode="a" horiz-adv-x="539" 
d="M445 128q0 -35 12.5 -48.5t41.5 -13.5v-66h-35q-69 0 -89 60q-49 -65 -146 -65q-75 0 -122 40.5t-47 105.5q0 49 24 82t79 51.5t84 24t98 13.5l21 3q-5 111 -106 111q-25 0 -44.5 -6.5t-29.5 -15.5t-16.5 -18t-8.5 -16l-2 -6h-86q7 57 57.5 99t132.5 42q83 0 132.5 -50
t49.5 -154v-173zM143 138q0 -50 54 -64q56 -15 111 18t57 95v52q-53 -5 -86 -10.5t-68 -16.5t-51.5 -29.5t-16.5 -44.5z" />
    <glyph glyph-name="b" unicode="b" horiz-adv-x="607" 
d="M316 505q97 0 164 -72t67 -183t-67 -183t-164 -72q-92 0 -145 69h-14l-19 -64h-58v710h85v-283q53 78 151 78zM309 77q60 0 105 48t45 125t-45 125t-105 48q-57 0 -100.5 -44t-43.5 -129t43.5 -129t100.5 -44z" />
    <glyph glyph-name="c" unicode="c" horiz-adv-x="581" 
d="M528 176q-17 -80 -82.5 -130.5t-145.5 -50.5q-96 0 -168 73.5t-72 181.5t72 181.5t168 73.5q81 0 149.5 -53t81.5 -135h-90q-16 48 -53.5 77t-87.5 29q-67 0 -109.5 -49.5t-42.5 -123.5t42.5 -123.5t109.5 -49.5q48 0 84.5 27t54.5 72h89z" />
    <glyph glyph-name="d" unicode="d" horiz-adv-x="609" 
d="M442 710h85v-710h-58l-19 64h-16q-52 -69 -143 -69q-96 0 -163.5 72.5t-67.5 182.5t67.5 182.5t163.5 72.5q97 0 151 -80v285zM148 250q0 -77 45 -125t105 -48q57 0 100.5 44t43.5 129t-43.5 129t-100.5 44q-60 0 -105 -48t-45 -125z" />
    <glyph glyph-name="e" unicode="e" horiz-adv-x="585" 
d="M297 505q98 0 166 -72.5t61 -205.5h-378q6 -70 47 -110.5t105 -40.5q84 0 123 64h92q-28 -67 -87 -106t-128 -39q-98 0 -168 72.5t-70 186.5q0 112 69.5 181.5t167.5 69.5zM296 431q-55 0 -94.5 -35.5t-51.5 -95.5h283q-9 59 -45.5 95t-91.5 36z" />
    <glyph glyph-name="f" unicode="f" horiz-adv-x="395" 
d="M308 611q-17 14 -40 14q-60 0 -60 -84v-41h120v-70h-120v-430h-84v430h-74v70h74v49q0 70 35 113t99 43q51 0 88 -32z" />
    <glyph glyph-name="g" unicode="g" horiz-adv-x="563" 
d="M343 97q79 0 118 -38t39 -99q0 -80 -62 -122.5t-154 -42.5q-110 0 -168 57.5t-43 139.5l76 53q-67 24 -67 84q0 63 63 94q-42 47 -42 113q0 72 51.5 121t133.5 49q59 0 105 -27q22 10 40.5 25.5t26.5 25.5l7 10l51 -71q-28 -20 -75 -36q30 -44 30 -97q0 -73 -51 -122
t-134 -49q-48 0 -89 19q-32 -18 -32 -45q0 -42 105 -42h71zM289 434q-45 0 -73 -28.5t-28 -70.5t27.5 -70t72.5 -28q46 0 73 28t27 71q0 42 -27 70t-72 28zM284 -126q53 0 92 23.5t39 64.5q0 21 -10 34.5t-30 19t-34.5 7t-36.5 2.5q-57 2 -84 5l-67 -63q-6 -41 34.5 -67
t96.5 -26z" />
    <glyph glyph-name="h" unicode="h" horiz-adv-x="580" 
d="M317 505q91 0 139.5 -63.5t48.5 -170.5v-271h-88v241q0 38 -4 67.5t-15.5 59t-35.5 45.5t-59 16q-58 0 -96.5 -39.5t-38.5 -104.5v-285h-88v710h88v-263h10q51 58 139 58z" />
    <glyph glyph-name="i" unicode="i" horiz-adv-x="269" 
d="M145 587q-27 0 -46 19t-19 45q0 27 19 45.5t46 18.5q26 0 45 -18.5t19 -45.5q0 -26 -19 -45t-45 -19zM188 500v-500h-88v500h88z" />
    <glyph glyph-name="j" unicode="j" horiz-adv-x="321" 
d="M197 587q-27 0 -46 19t-19 45q0 27 19 45.5t46 18.5q26 0 45 -18.5t19 -45.5q0 -26 -19 -45t-45 -19zM151 500h87v-549q0 -69 -38 -112.5t-102 -43.5q-51 0 -88 32l38 61q18 -14 40 -14q63 0 63 85v541z" />
    <glyph glyph-name="k" unicode="k" horiz-adv-x="549" 
d="M499 500l-199 -214l199 -286h-98l-160 224l-75 -81v-143h-86v710h86v-432h16l210 222h107z" />
    <glyph glyph-name="l" unicode="l" horiz-adv-x="247" 
d="M80 710h87v-710h-87v710z" />
    <glyph glyph-name="m" unicode="m" horiz-adv-x="853" 
d="M607 505q84 0 129.5 -64t45.5 -170v-271h-88v241q0 41 -3.5 71t-13 58.5t-30 43.5t-51.5 15q-49 0 -84 -36.5t-37 -100.5v-292h-88v241q0 41 -3.5 71t-13 58.5t-30 43.5t-51.5 15q-51 0 -86 -39t-35 -105v-285h-88v500h58l17 -56h14q53 61 128 61q83 0 140 -80h17
q58 80 153 80z" />
    <glyph glyph-name="n" unicode="n" horiz-adv-x="576" 
d="M315 505q93 0 141.5 -63t48.5 -171v-271h-88v241q0 38 -4 67.5t-15.5 59t-35.5 45.5t-59 16q-58 0 -96.5 -39.5t-38.5 -104.5v-285h-88v500h58l18 -57h12q54 62 147 62z" />
    <glyph glyph-name="o" unicode="o" horiz-adv-x="600" 
d="M300 -5q-96 0 -168 73.5t-72 181.5t72 181.5t168 73.5t168 -73.5t72 -181.5q0 -109 -71.5 -182t-168.5 -73zM300 77q67 0 109.5 49.5t42.5 123.5t-42.5 123.5t-109.5 49.5t-109.5 -49.5t-42.5 -123.5t42.5 -123.5t109.5 -49.5z" />
    <glyph glyph-name="p" unicode="p" horiz-adv-x="607" 
d="M316 505q96 0 163.5 -72.5t67.5 -182.5t-67.5 -182.5t-163.5 -72.5q-97 0 -151 80v-275h-85v700h58l19 -63h16q53 68 143 68zM309 77q60 0 105 48t45 125t-45 125t-105 48q-57 0 -100.5 -44t-43.5 -129t43.5 -129t100.5 -44z" />
    <glyph glyph-name="q" unicode="q" horiz-adv-x="607" 
d="M469 500h58v-700h-85v273q-53 -78 -151 -78q-97 0 -164 72t-67 183t67 183t164 72q89 0 144 -68h15zM298 77q57 0 100.5 44t43.5 129t-43.5 129t-100.5 44q-60 0 -105 -48t-45 -125t45 -125t105 -48z" />
    <glyph glyph-name="r" unicode="r" horiz-adv-x="386" 
d="M305 505h31v-86q-20 4 -41 4q-53 0 -90 -32t-37 -96v-295h-88v500h58l17 -56h14q53 61 136 61z" />
    <glyph glyph-name="s" unicode="s" horiz-adv-x="503" 
d="M433 143q0 -68 -49 -108t-124 -40q-84 0 -137 48t-53 118h81q0 -44 32 -69t76 -25q38 0 64.5 18.5t26.5 53.5q0 34 -26 51t-78 31q-27 7 -43.5 12.5t-41.5 17.5t-39.5 26t-25.5 37t-11 52q0 65 46.5 102t118.5 37q79 0 126 -43t47 -99h-81q0 28 -26.5 49.5t-65.5 21.5
q-35 0 -58.5 -18.5t-23.5 -48.5q0 -31 25 -47t71 -28q30 -8 47.5 -13.5t44 -18t41 -26.5t25.5 -37.5t11 -53.5z" />
    <glyph glyph-name="t" unicode="t" horiz-adv-x="435" 
d="M337 88l38 -61q-37 -32 -88 -32q-64 0 -102 43.5t-38 112.5v275h-87v65h31q29 0 48 19t19 50v90h74v-150h121v-73h-120v-268q0 -85 64 -85q22 0 40 14z" />
    <glyph glyph-name="u" unicode="u" horiz-adv-x="579" 
d="M411 500h88v-500h-58l-16 53h-13q-51 -58 -140 -58q-94 0 -143 63t-49 171v271h88v-241q0 -188 121 -188q122 0 122 164v265z" />
    <glyph glyph-name="v" unicode="v" horiz-adv-x="576" 
d="M424 500h92l-162 -500h-132l-162 500h92l130 -428h12z" />
    <glyph glyph-name="w" unicode="w" horiz-adv-x="792" 
d="M645 500h87l-119 -500h-132l-79 340h-12l-79 -340h-132l-119 500h87l93 -421h12l89 381h110l90 -381h11z" />
    <glyph glyph-name="x" unicode="x" horiz-adv-x="587" 
d="M420 0l-119 189h-14l-120 -189h-103l170 260l-155 240h100l109 -170h12l108 170h100l-155 -240l170 -260h-103z" />
    <glyph glyph-name="y" unicode="y" horiz-adv-x="590" 
d="M450 500h90l-184 -519q-29 -87 -52 -120q-46 -66 -126 -66q-34 0 -63 10t-40 24l39 61q27 -19 60 -19q19 0 32.5 6t23.5 22t14.5 26t13.5 34l15 41h-41l-182 500h91l151 -414h11z" />
    <glyph glyph-name="z" unicode="z" horiz-adv-x="520" 
d="M184 75h266v-75h-380v46l256 379h-246v75h360v-46z" />
    <glyph glyph-name="braceleft" unicode="{" horiz-adv-x="338" 
d="M197 419q0 -81 -62 -111v-12q62 -30 62 -111v-240q0 -25 14.5 -39.5t40.5 -14.5h11v-60h-29q-52 0 -82 31.5t-30 86.5v236q0 90 -72 90v54q72 0 72 90v236q0 55 30 86.5t82 31.5h29v-60h-11q-26 0 -40.5 -14.5t-14.5 -39.5v-240z" />
    <glyph glyph-name="bar" unicode="|" horiz-adv-x="242" 
d="M162 770v-910h-82v910h82z" />
    <glyph glyph-name="braceright" unicode="}" horiz-adv-x="328" 
d="M206 419q0 -90 72 -90v-54q-72 0 -72 -90v-236q0 -55 -30 -86.5t-82 -31.5h-29v60h11q26 0 40.5 14.5t14.5 39.5v240q0 81 62 111v12q-62 30 -62 111v240q0 25 -14.5 39.5t-40.5 14.5h-11v60h29q52 0 82 -31.5t30 -86.5v-236z" />
    <glyph glyph-name="asciitilde" unicode="~" horiz-adv-x="656" 
d="M596 328q-2 -5 -6.5 -14t-22 -30.5t-38 -36.5t-56 -23.5t-76.5 -0.5q-39 7 -91 35t-77 31q-29 3 -52.5 -10.5t-32.5 -28.5l-9 -15l-75 30q2 5 7 13.5t22.5 29.5t38 36t56 24t75.5 2t91.5 -35t76.5 -31q29 -3 52.5 10.5t32.5 28.5l9 15z" />
    <glyph glyph-name="uni00A0" unicode="&#xa0;" horiz-adv-x="250" 
 />
    <glyph glyph-name="exclamdown" unicode="&#xa1;" horiz-adv-x="260" 
d="M130 505q25 0 42.5 -17.5t17.5 -42.5t-17.5 -42.5t-42.5 -17.5t-42.5 17.5t-17.5 42.5t17.5 42.5t42.5 17.5zM182 -200h-105l20 509h65z" />
    <glyph glyph-name="cent" unicode="&#xa2;" horiz-adv-x="591" 
d="M337 149q74 18 105 97h86q-15 -70 -68.5 -118t-122.5 -60v-69h-75v69q-84 15 -143 85t-59 167t59 167t143 85v68h75v-68q72 -12 127 -62.5t67 -122.5h-87q-28 84 -107 104v-342zM144 320q0 -63 32.5 -110.5t85.5 -60.5v342q-53 -13 -85.5 -60.5t-32.5 -110.5z" />
    <glyph glyph-name="sterling" unicode="&#xa3;" horiz-adv-x="569" 
d="M214 95v-13h298v-82h-451v81q5 0 13 1.5t28 10t35.5 22t28.5 42t13 65.5q0 27 -13 55h-106v79h63q-22 50 -22 99q0 67 35 112t80 61.5t94 16.5q48 0 87.5 -16.5t61 -39.5t36.5 -46t19 -39l5 -17l-76 -21q-1 4 -3.5 11t-13.5 24t-24.5 30t-38 24t-53.5 11q-52 0 -87 -28.5
t-35 -77.5q0 -40 34 -104h211v-79h-176q8 -26 8 -50q0 -75 -51 -132z" />
    <glyph glyph-name="currency" unicode="&#xa4;" horiz-adv-x="620" 
d="M527 250q0 -69 -40 -125l73 -72l-53 -53l-72 72q-56 -39 -125 -39q-68 0 -125 39l-73 -72l-52 53l72 72q-40 56 -40 125t40 125l-72 72l52 53l73 -72q55 39 125 39q69 0 125 -39l72 72l53 -53l-73 -72q40 -56 40 -125zM176 250q0 -54 39 -94t95 -40t95 40t39 94t-39 94
t-95 40t-95 -40t-39 -94z" />
    <glyph glyph-name="yen" unicode="&#xa5;" horiz-adv-x="607" 
d="M557 640l-171 -228h104v-71h-144v-62h144v-71h-144v-208h-85l-1 208h-143v71h143v62h-143v71h102l-169 228h102l143 -202h16l143 202h103z" />
    <glyph glyph-name="brokenbar" unicode="&#xa6;" horiz-adv-x="242" 
d="M80 770h82v-355h-82v355zM80 -140v355h82v-355h-82z" />
    <glyph glyph-name="section" unicode="&#xa7;" horiz-adv-x="550" 
d="M380 103q41 -16 66.5 -52.5t25.5 -85.5q0 -74 -57.5 -119.5t-138.5 -45.5q-90 0 -144 55t-54 123h86q0 -35 33 -65t80 -30q44 0 76 27t32 67q0 14 -4.5 26t-10.5 20t-17.5 16t-19.5 12t-22.5 8.5t-20.5 6t-19 4.5t-14 3q-35 7 -67 21.5t-62.5 37t-49 58t-18.5 77.5
q0 56 30.5 97t78.5 58q-41 17 -66.5 51t-25.5 83q0 74 57.5 119.5t138.5 45.5q90 0 144 -55t54 -123h-86q0 35 -33 65t-80 30q-44 0 -76 -26.5t-32 -67.5q0 -26 13 -44.5t37 -29t40 -14.5t39 -8q80 -14 138.5 -62t58.5 -130q0 -58 -30.5 -96.5t-79.5 -56.5zM283 151
q48 0 83 29.5t35 74.5q0 49 -41.5 82t-93.5 33q-48 0 -83 -29.5t-35 -73.5q0 -49 41.5 -82.5t93.5 -33.5z" />
    <glyph glyph-name="dieresis" unicode="&#xa8;" horiz-adv-x="440" 
d="M135 551q-23 0 -39 16.5t-16 38.5q0 23 16 39t39 16t39 -16t16 -39q0 -22 -16 -38.5t-39 -16.5zM305 551q-23 0 -39 16.5t-16 38.5q0 23 16 39t39 16t39 -16t16 -39q0 -22 -16 -38.5t-39 -16.5z" />
    <glyph glyph-name="copyright" unicode="&#xa9;" 
d="M415 -5q-147 0 -251 104t-104 251t104 251t251 104q146 0 250.5 -104t104.5 -251t-104.5 -251t-250.5 -104zM415 69q116 0 198.5 82.5t82.5 198.5t-82.5 198.5t-198.5 82.5t-198.5 -82.5t-82.5 -198.5t82.5 -198.5t198.5 -82.5zM585 295q-12 -60 -61 -97.5t-108 -37.5
q-72 0 -126 54.5t-54 135.5t53.5 135.5t125.5 54.5q60 0 111 -39.5t61 -100.5h-74q-13 31 -40 48.5t-58 17.5q-45 0 -75 -35t-30 -81t29.5 -81t78.5 -35q32 0 57.5 16t35.5 45h74z" />
    <glyph glyph-name="guillemotleft" unicode="&#xab;" horiz-adv-x="596" 
d="M221 97l-161 202l161 202h100l-163 -202l163 -202h-100zM436 97l-161 202l161 202h100l-163 -202l163 -202h-100z" />
    <glyph glyph-name="logicalnot" unicode="&#xac;" horiz-adv-x="596" 
d="M536 179h-76l-1 160h-399v76h475v-27z" />
    <glyph glyph-name="uni00AD" unicode="&#xad;" horiz-adv-x="480" 
d="M60 349h360v-76h-360v76z" />
    <glyph glyph-name="registered" unicode="&#xae;" 
d="M415 -5q-147 0 -251 104t-104 251t104 251t251 104q146 0 250.5 -104t104.5 -251t-104.5 -251t-250.5 -104zM415 69q116 0 198.5 82.5t82.5 198.5t-82.5 198.5t-198.5 82.5t-198.5 -82.5t-82.5 -198.5t82.5 -198.5t198.5 -82.5zM481 170l-82 132h-37v-132h-69v360h134
q50 0 85.5 -30t35.5 -81q0 -40 -21.5 -68.5t-56.5 -41.5l85 -139h-74zM362 371h58q24 0 39.5 12t15.5 33q0 20 -13 33.5t-37 13.5h-63v-92z" />
    <glyph glyph-name="macron" unicode="&#xaf;" horiz-adv-x="490" 
d="M80 650h330v-70h-330v70z" />
    <glyph glyph-name="degree" unicode="&#xb0;" horiz-adv-x="356" 
d="M178 407q-49 0 -83.5 34.5t-34.5 83.5t34.5 83.5t83.5 34.5q48 0 83 -34.5t35 -83.5t-35 -83.5t-83 -34.5zM178 475q21 0 35.5 14.5t14.5 35.5t-14.5 35.5t-35.5 14.5t-35.5 -14.5t-14.5 -35.5t14.5 -35.5t35.5 -14.5z" />
    <glyph glyph-name="plusminus" unicode="&#xb1;" horiz-adv-x="535" 
d="M307 388h168v-76h-167v-173h-80v173h-168v76h168v170h79v-170zM60 0v76h415v-76h-415z" />
    <glyph glyph-name="uni00B2" unicode="&#xb2;" horiz-adv-x="362" 
d="M207 484q-56 -32 -69 -48q-10 -13 -10 -28h181v-66h-259v36q0 93 108 147q8 4 29.5 13.5t30 14.5t17 15.5t8.5 23.5q0 22 -16 35.5t-42 13.5q-27 0 -44.5 -19t-17.5 -50h-70q0 49 33.5 90t94.5 41q55 0 93 -30t38 -76q0 -21 -6 -37.5t-19.5 -28t-24 -18.5t-30 -16
t-25.5 -13z" />
    <glyph glyph-name="uni00B3" unicode="&#xb3;" horiz-adv-x="363" 
d="M254 528q28 -9 43.5 -31t15.5 -50q0 -48 -35 -79t-96 -31t-96.5 36t-35.5 92h67q6 -66 68 -66q59 0 59 52q0 19 -17 33.5t-53 14.5h-26v57h23q62 0 62 48q0 15 -14.5 26.5t-35.5 11.5q-49 0 -55 -40h-63q0 43 34 72t84 29q48 0 82.5 -26.5t34.5 -63.5q0 -54 -46 -79v-6z
" />
    <glyph glyph-name="acute" unicode="&#xb4;" horiz-adv-x="325" 
d="M138 680h107l-104 -125h-61z" />
    <glyph glyph-name="uni00B5" unicode="&#xb5;" horiz-adv-x="579" 
d="M411 500h88v-500h-58l-18 57h-12q-54 -62 -144 -62q-63 0 -106 32v-227h-81v700h88v-241q0 -188 110 -188q54 0 93.5 39t39.5 105v285z" />
    <glyph glyph-name="paragraph" unicode="&#xb6;" horiz-adv-x="639" 
d="M60 512q0 57 29.5 101t77.5 66q47 21 100 21h312v-72h-80v-828h-73v828h-84v-828h-75v523q-84 0 -142 49q-65 49 -65 140z" />
    <glyph glyph-name="periodcentered" unicode="&#xb7;" horiz-adv-x="240" 
d="M120 251q-25 0 -42.5 17.5t-17.5 42.5t17.5 42.5t42.5 17.5t42.5 -17.5t17.5 -42.5t-17.5 -42.5t-42.5 -17.5z" />
    <glyph glyph-name="cedilla" unicode="&#xb8;" horiz-adv-x="372" 
d="M155 5h65l-30 -45q37 8 69.5 -13t32.5 -62q0 -38 -29.5 -64t-76.5 -26q-35 0 -61.5 15.5t-35.5 30.5l-9 15l48 27q18 -31 57 -31q21 0 32 9.5t11 23.5q0 13 -11 22.5t-32 9.5q-11 0 -21.5 -2.5t-15.5 -4.5l-5 -3l-28 36z" />
    <glyph glyph-name="uni00B9" unicode="&#xb9;" horiz-adv-x="255" 
d="M134 340v233h-89v57h55q17 0 27.5 11t10.5 30v29h66l1 -360h-71z" />
    <glyph glyph-name="guillemotright" unicode="&#xbb;" horiz-adv-x="596" 
d="M160 97h-100l163 202l-163 202h100l161 -202zM375 97h-100l163 202l-163 202h100l161 -202z" />
    <glyph glyph-name="questiondown" unicode="&#xbf;" horiz-adv-x="431" 
d="M234 505q25 0 42.5 -17.5t17.5 -42.5t-17.5 -42.5t-42.5 -17.5t-42.5 17.5t-17.5 42.5t17.5 42.5t42.5 17.5zM282 243q0 -48 -18.5 -86t-36.5 -54.5t-48 -37.5q-20 -14 -32 -25t-22 -30.5t-10 -42.5q0 -39 23 -70.5t77 -31.5q87 0 101 97h82q0 -28 -9 -56t-28.5 -55
t-57 -43.5t-86.5 -16.5q-89 0 -136.5 50.5t-47.5 126.5q0 41 15.5 73.5t30.5 47t38 30.5q30 22 44 34t26.5 36t12.5 56v62h82v-64z" />
    <glyph glyph-name="Agrave" unicode="&#xc0;" horiz-adv-x="638" 
d="M391 755h-73l-125 125h128zM521 0l-59 183h-286l-59 -183h-97l236 700h126l236 -700h-97zM313 606l-109 -338h230l-109 338h-12z" />
    <glyph glyph-name="Aacute" unicode="&#xc1;" horiz-adv-x="638" 
d="M454 880l-125 -125h-73l70 125h128zM521 0l-59 183h-286l-59 -183h-97l236 700h126l236 -700h-97zM313 606l-109 -338h230l-109 338h-12z" />
    <glyph glyph-name="Acircumflex" unicode="&#xc2;" horiz-adv-x="638" 
d="M310 845l-59 -90h-89l109 154h91l109 -154h-89l-59 90h-13zM521 0l-59 183h-286l-59 -183h-97l236 700h126l236 -700h-97zM313 606l-109 -338h230l-109 338h-12z" />
    <glyph glyph-name="Atilde" unicode="&#xc3;" horiz-adv-x="638" 
d="M255 791q-19 2 -34 -7.5t-21 -19.5l-5 -11l-58 25q2 4 5.5 11.5t16.5 25.5t27.5 31t38.5 21.5t50 4.5q24 -5 57 -25.5t49 -22.5q19 -2 34 7.5t21 20.5l6 11l58 -26q-2 -5 -5.5 -12t-15.5 -25.5t-26.5 -31.5t-38.5 -21t-51 -3q-25 5 -58.5 25t-49.5 22zM521 0l-59 183
h-286l-59 -183h-97l236 700h126l236 -700h-97zM313 606l-109 -338h230l-109 338h-12z" />
    <glyph glyph-name="Adieresis" unicode="&#xc4;" horiz-adv-x="638" 
d="M199 749q-25 0 -43.5 18.5t-18.5 43.5q0 26 18 43.5t44 17.5t43.5 -17.5t17.5 -43.5t-18 -44t-43 -18zM439 749q-25 0 -43.5 18.5t-18.5 43.5q0 26 18 43.5t44 17.5t43.5 -17.5t17.5 -43.5t-18 -44t-43 -18zM521 0l-59 183h-286l-59 -183h-97l236 700h126l236 -700h-97z
M313 606l-109 -338h230l-109 338h-12z" />
    <glyph glyph-name="Aring" unicode="&#xc5;" horiz-adv-x="638" 
d="M521 0l-59 183h-286l-59 -183h-97l226 669q-33 30 -33 75q0 43 31 74t75 31q43 0 74 -31t31 -74q0 -44 -32 -74l226 -670h-97zM319 787q-18 0 -30 -12.5t-12 -30.5t12 -30.5t30 -12.5q17 0 29 13t12 30t-12 30t-29 13zM313 606l-109 -338h230l-109 338h-12z" />
    <glyph glyph-name="AE" unicode="&#xc6;" horiz-adv-x="1036" 
d="M598 88h358v-88h-451v183h-265l-116 -183h-104l443 700h483v-87h-348v-215h318v-87h-318v-223zM294 268h211v312h-12z" />
    <glyph glyph-name="Ccedilla" unicode="&#xc7;" horiz-adv-x="713" 
d="M377 84q63 0 111 31t72 85h103q-30 -83 -99.5 -139t-158.5 -65l-19 -28q39 9 73.5 -13.5t34.5 -65.5q0 -40 -31.5 -67t-80.5 -27q-23 0 -43 6.5t-32 16t-20.5 19t-12.5 15.5l-3 7l50 28q19 -32 60 -32q22 0 33.5 9.5t11.5 24.5q0 14 -11.5 24t-33.5 10q-11 0 -22 -2.5
t-17 -5.5l-5 -3l-29 38l31 47q-119 15 -199 113t-80 240q0 154 93 254.5t223 100.5q96 0 175 -56.5t112 -148.5h-103q-25 55 -73.5 85.5t-110.5 30.5q-98 0 -159.5 -73.5t-61.5 -192.5t61.5 -192.5t160.5 -73.5z" />
    <glyph glyph-name="Egrave" unicode="&#xc8;" horiz-adv-x="611" 
d="M292 880l70 -125h-73l-125 125h128zM173 88h358v-88h-451v700h441v-87h-348v-215h318v-87h-318v-223z" />
    <glyph glyph-name="Eacute" unicode="&#xc9;" horiz-adv-x="611" 
d="M311 880h128l-125 -125h-73zM173 88h358v-88h-451v700h441v-87h-348v-215h318v-87h-318v-223z" />
    <glyph glyph-name="Ecircumflex" unicode="&#xca;" horiz-adv-x="611" 
d="M295 845l-59 -90h-89l109 154h91l109 -154h-89l-59 90h-13zM173 88h358v-88h-451v700h441v-87h-348v-215h318v-87h-318v-223z" />
    <glyph glyph-name="Edieresis" unicode="&#xcb;" horiz-adv-x="611" 
d="M183 749q-25 0 -43.5 18.5t-18.5 43.5q0 26 18 43.5t44 17.5t43.5 -17.5t17.5 -43.5t-18 -44t-43 -18zM423 749q-25 0 -43.5 18.5t-18.5 43.5q0 26 18 43.5t44 17.5t43.5 -17.5t17.5 -43.5t-18 -44t-43 -18zM173 88h358v-88h-451v700h441v-87h-348v-215h318v-87h-318
v-223z" />
    <glyph glyph-name="Igrave" unicode="&#xcc;" horiz-adv-x="253" 
d="M120 880l70 -125h-73l-125 125h128zM173 700v-700h-93v700h93z" />
    <glyph glyph-name="Iacute" unicode="&#xcd;" horiz-adv-x="253" 
d="M134 880h128l-125 -125h-73zM173 700v-700h-93v700h93z" />
    <glyph glyph-name="Icircumflex" unicode="&#xce;" horiz-adv-x="253" 
d="M170 909l109 -154h-89l-59 90h-13l-59 -90h-89l109 154h91zM80 0v700h93v-700h-93z" />
    <glyph glyph-name="Idieresis" unicode="&#xcf;" horiz-adv-x="253" 
d="M28 749q-26 0 -44 18.5t-18 43.5q0 26 18 43.5t44 17.5t43.5 -17.5t17.5 -43.5t-18 -44t-43 -18zM228 749q-26 0 -44 18.5t-18 43.5q0 26 18 43.5t44 17.5t43.5 -17.5t17.5 -43.5t-18 -44t-43 -18zM173 700v-700h-93v700h93z" />
    <glyph glyph-name="Eth" unicode="&#xd0;" horiz-adv-x="747" 
d="M362 700q139 0 232 -98t93 -252t-92.5 -252t-232.5 -98h-222v326h-100v76h100v298h222zM362 88q108 0 168 72t60 190t-60.5 190t-167.5 72h-129v-210h177v-76h-177v-238h129z" />
    <glyph glyph-name="Ntilde" unicode="&#xd1;" horiz-adv-x="712" 
d="M292 791q-19 2 -34 -7.5t-20 -19.5l-6 -11l-58 25q2 4 5.5 11.5t16.5 25.5t27.5 31t38.5 21.5t50 4.5q24 -5 57 -25.5t49 -22.5q19 -2 34 7.5t21 20.5l6 11l58 -26q-2 -5 -5.5 -12t-15.5 -25.5t-26.5 -31.5t-38.5 -21t-51 -3q-25 5 -58.5 25t-49.5 22zM544 700h88v-700
h-125l-329 557h-11v-557h-87v700h112l340 -570h12v570z" />
    <glyph glyph-name="Ograve" unicode="&#xd2;" horiz-adv-x="804" 
d="M413 880l70 -125h-73l-125 125h128zM403 -5q-140 0 -241.5 102t-101.5 253t101 253t241 102t241 -102t101 -253t-100.5 -253t-240.5 -102zM403 83q109 0 178 75.5t69 191.5t-69.5 191.5t-178.5 75.5q-108 0 -177.5 -75.5t-69.5 -191.5t69.5 -191.5t178.5 -75.5z" />
    <glyph glyph-name="Oacute" unicode="&#xd3;" horiz-adv-x="804" 
d="M420 880h128l-125 -125h-73zM403 -5q-140 0 -241.5 102t-101.5 253t101 253t241 102t241 -102t101 -253t-100.5 -253t-240.5 -102zM403 83q109 0 178 75.5t69 191.5t-69.5 191.5t-178.5 75.5q-108 0 -177.5 -75.5t-69.5 -191.5t69.5 -191.5t178.5 -75.5z" />
    <glyph glyph-name="Ocircumflex" unicode="&#xd4;" horiz-adv-x="804" 
d="M395 845l-59 -90h-89l109 154h91l109 -154h-89l-59 90h-13zM402 705q140 0 241 -102t101 -253t-100.5 -253t-240.5 -102t-241.5 102t-101.5 253t101 253t241 102zM403 83q109 0 178 75.5t69 191.5t-69.5 191.5t-178.5 75.5q-108 0 -177.5 -75.5t-69.5 -191.5t69.5 -191.5
t178.5 -75.5z" />
    <glyph glyph-name="Otilde" unicode="&#xd5;" horiz-adv-x="804" 
d="M583 837q-2 -5 -5.5 -12t-15.5 -25.5t-26.5 -31.5t-38.5 -21t-51 -3q-25 5 -58.5 25t-49.5 22q-19 2 -34 -7.5t-20 -19.5l-6 -11l-58 25q2 4 5.5 11.5t16.5 25.5t27.5 31t38.5 21.5t50 4.5q24 -5 57 -25.5t49 -22.5q19 -2 34 7.5t21 20.5l6 11zM403 -5q-140 0 -241.5 102
t-101.5 253t101 253t241 102t241 -102t101 -253t-100.5 -253t-240.5 -102zM403 83q109 0 178 75.5t69 191.5t-69.5 191.5t-178.5 75.5q-108 0 -177.5 -75.5t-69.5 -191.5t69.5 -191.5t178.5 -75.5z" />
    <glyph glyph-name="Odieresis" unicode="&#xd6;" horiz-adv-x="804" 
d="M274 749q-26 0 -44 18.5t-18 43.5q0 26 18 43.5t44 17.5t43.5 -17.5t17.5 -43.5t-18 -44t-43 -18zM514 749q-26 0 -44 18.5t-18 43.5q0 26 18 43.5t44 17.5t43.5 -17.5t17.5 -43.5t-18 -44t-43 -18zM403 -5q-140 0 -241.5 102t-101.5 253t101 253t241 102t241 -102
t101 -253t-100.5 -253t-240.5 -102zM403 83q109 0 178 75.5t69 191.5t-69.5 191.5t-178.5 75.5q-108 0 -177.5 -75.5t-69.5 -191.5t69.5 -191.5t178.5 -75.5z" />
    <glyph glyph-name="multiply" unicode="&#xd7;" horiz-adv-x="632" 
d="M562 484l-188 -188l188 -188l-58 -58l-188 188l-188 -188l-58 58l188 188l-188 188l58 58l188 -188l188 188z" />
    <glyph glyph-name="Oslash" unicode="&#xd8;" horiz-adv-x="804" 
d="M635 611q109 -106 109 -261q0 -151 -100.5 -253t-240.5 -102q-90 0 -168 45l-42 -59l-60 43l42 60q-115 104 -115 266q0 151 101 253t241 102q92 0 173 -48l41 59l62 -44zM155 350q0 -117 71 -193l299 429q-54 31 -123 31q-108 0 -177.5 -75.5t-69.5 -191.5zM403 83
q109 0 178 75.5t69 191.5q0 114 -66 188l-299 -426q52 -29 118 -29z" />
    <glyph glyph-name="Ugrave" unicode="&#xd9;" horiz-adv-x="704" 
d="M328 880l70 -125h-73l-125 125h128zM634 700v-400q0 -153 -78.5 -229t-202.5 -76t-203.5 76t-79.5 229v400h94v-390q0 -117 52 -172t137 -55t136 55t51 172v390h94z" />
    <glyph glyph-name="Uacute" unicode="&#xda;" horiz-adv-x="704" 
d="M359 880h128l-125 -125h-73zM634 700v-400q0 -153 -78.5 -229t-202.5 -76t-203.5 76t-79.5 229v400h94v-390q0 -117 52 -172t137 -55t136 55t51 172v390h94z" />
    <glyph glyph-name="Ucircumflex" unicode="&#xdb;" horiz-adv-x="704" 
d="M345 845l-59 -90h-89l109 154h91l109 -154h-89l-59 90h-13zM540 700h94v-400q0 -153 -78.5 -229t-202.5 -76t-203.5 76t-79.5 229v400h94v-390q0 -117 52 -172t137 -55t136 55t51 172v390z" />
    <glyph glyph-name="Udieresis" unicode="&#xdc;" horiz-adv-x="704" 
d="M229 749q-25 0 -43.5 18.5t-18.5 43.5q0 26 18 43.5t44 17.5t43.5 -17.5t17.5 -43.5t-18 -44t-43 -18zM469 749q-25 0 -43.5 18.5t-18.5 43.5q0 26 18 43.5t44 17.5t43.5 -17.5t17.5 -43.5t-18 -44t-43 -18zM634 700v-400q0 -153 -78.5 -229t-202.5 -76t-203.5 76
t-79.5 229v400h94v-390q0 -117 52 -172t137 -55t136 55t51 172v390h94z" />
    <glyph glyph-name="Yacute" unicode="&#xdd;" horiz-adv-x="653" 
d="M475 880l-125 -125h-73l70 125h128zM502 700h111l-240 -349v-351h-93v351l-240 349h110l169 -254h14z" />
    <glyph glyph-name="Thorn" unicode="&#xde;" horiz-adv-x="594" 
d="M322 582q92 0 157 -55t65 -150q0 -96 -66 -155.5t-156 -59.5h-157v-162h-85v700h85v-118h157zM312 244q58 0 101 34t43 99q0 64 -42 93.5t-102 29.5h-147v-256h147z" />
    <glyph glyph-name="germandbls" unicode="&#xdf;" horiz-adv-x="582" 
d="M389 384q58 -14 95.5 -66t37.5 -121q0 -86 -58.5 -144t-137.5 -58q-36 0 -69 12t-50 27l38 54q36 -17 72 -17q48 0 83.5 36t35.5 97q0 65 -44 102.5t-129 37.5h-22v76h22q54 0 90.5 25t36.5 78q0 46 -29.5 73t-79.5 27t-84 -30t-34 -93v-500h-83v500q0 90 50.5 147.5
t146.5 57.5q89 0 145 -48.5t56 -125.5q0 -98 -89 -136v-11z" />
    <glyph glyph-name="agrave" unicode="&#xe0;" horiz-adv-x="539" 
d="M315 555h-61l-104 125h107zM445 128q0 -35 12.5 -48.5t41.5 -13.5v-66h-35q-69 0 -89 60q-49 -65 -146 -65q-75 0 -122 40.5t-47 105.5q0 49 24 82t79 51.5t84 24t98 13.5l21 3q-5 111 -106 111q-25 0 -44.5 -6.5t-29.5 -15.5t-16.5 -18t-8.5 -16l-2 -6h-86q7 57 57.5 99
t132.5 42q83 0 132.5 -50t49.5 -154v-173zM143 138q0 -50 54 -64q56 -15 111 18t57 95v52q-53 -5 -86 -10.5t-68 -16.5t-51.5 -29.5t-16.5 -44.5z" />
    <glyph glyph-name="aacute" unicode="&#xe1;" horiz-adv-x="539" 
d="M391 680l-104 -125h-61l58 125h107zM445 128q0 -35 12.5 -48.5t41.5 -13.5v-66h-35q-69 0 -89 60q-49 -65 -146 -65q-75 0 -122 40.5t-47 105.5q0 49 24 82t79 51.5t84 24t98 13.5l21 3q-5 111 -106 111q-25 0 -44.5 -6.5t-29.5 -15.5t-16.5 -18t-8.5 -16l-2 -6h-86
q7 57 57.5 99t132.5 42q83 0 132.5 -50t49.5 -154v-173zM143 138q0 -50 54 -64q56 -15 111 18t57 95v52q-53 -5 -86 -10.5t-68 -16.5t-51.5 -29.5t-16.5 -44.5z" />
    <glyph glyph-name="acircumflex" unicode="&#xe2;" horiz-adv-x="539" 
d="M256 646l-53 -90h-81l99 154h83l99 -154h-81l-53 90h-13zM445 128q0 -35 12.5 -48.5t41.5 -13.5v-66h-35q-69 0 -89 60q-49 -65 -146 -65q-75 0 -122 40.5t-47 105.5q0 49 24 82t79 51.5t84 24t98 13.5l21 3q-5 111 -106 111q-25 0 -44.5 -6.5t-29.5 -15.5t-16.5 -18
t-8.5 -16l-2 -6h-86q7 57 57.5 99t132.5 42q83 0 132.5 -50t49.5 -154v-173zM143 138q0 -50 54 -64q56 -15 111 18t57 95v52q-53 -5 -86 -10.5t-68 -16.5t-51.5 -29.5t-16.5 -44.5z" />
    <glyph glyph-name="atilde" unicode="&#xe3;" horiz-adv-x="539" 
d="M202 594q-17 2 -30.5 -7t-18.5 -19l-5 -9l-53 23q2 4 5 10.5t14.5 23t25 28.5t35 19.5t45.5 3.5q22 -4 52 -22.5t45 -20.5q17 -2 30.5 6.5t18.5 18.5l6 10l53 -24q-2 -4 -5 -11t-14 -23.5t-24.5 -28t-35.5 -19t-46 -2.5q-22 4 -52.5 22.5t-45.5 20.5zM445 128
q0 -35 12.5 -48.5t41.5 -13.5v-66h-35q-69 0 -89 60q-49 -65 -146 -65q-75 0 -122 40.5t-47 105.5q0 49 24 82t79 51.5t84 24t98 13.5l21 3q-5 111 -106 111q-25 0 -44.5 -6.5t-29.5 -15.5t-16.5 -18t-8.5 -16l-2 -6h-86q7 57 57.5 99t132.5 42q83 0 132.5 -50t49.5 -154
v-173zM143 138q0 -50 54 -64q56 -15 111 18t57 95v52q-53 -5 -86 -10.5t-68 -16.5t-51.5 -29.5t-16.5 -44.5z" />
    <glyph glyph-name="adieresis" unicode="&#xe4;" horiz-adv-x="539" 
d="M177 551q-23 0 -39 16.5t-16 38.5q0 23 16 39t39 16t39 -16t16 -39q0 -22 -16 -38.5t-39 -16.5zM347 551q-23 0 -39 16.5t-16 38.5q0 23 16 39t39 16t39 -16t16 -39q0 -22 -16 -38.5t-39 -16.5zM445 128q0 -35 12.5 -48.5t41.5 -13.5v-66h-35q-69 0 -89 60
q-49 -65 -146 -65q-75 0 -122 40.5t-47 105.5q0 49 24 82t79 51.5t84 24t98 13.5l21 3q-5 111 -106 111q-25 0 -44.5 -6.5t-29.5 -15.5t-16.5 -18t-8.5 -16l-2 -6h-86q7 57 57.5 99t132.5 42q83 0 132.5 -50t49.5 -154v-173zM143 138q0 -50 54 -64q56 -15 111 18t57 95v52
q-53 -5 -86 -10.5t-68 -16.5t-51.5 -29.5t-16.5 -44.5z" />
    <glyph glyph-name="aring" unicode="&#xe5;" horiz-adv-x="539" 
d="M273 535q-40 0 -68 28t-28 67t28 67t68 28q39 0 67.5 -28t28.5 -67t-28.5 -67t-67.5 -28zM273 669q-16 0 -27 -11.5t-11 -27.5t11 -27.5t27 -11.5t27 11.5t11 27.5t-11 27.5t-27 11.5zM445 128q0 -35 12.5 -48.5t41.5 -13.5v-66h-35q-69 0 -89 60q-49 -65 -146 -65
q-75 0 -122 40.5t-47 105.5q0 49 24 82t79 51.5t84 24t98 13.5l21 3q-5 111 -106 111q-25 0 -44.5 -6.5t-29.5 -15.5t-16.5 -18t-8.5 -16l-2 -6h-86q7 57 57.5 99t132.5 42q83 0 132.5 -50t49.5 -154v-173zM143 138q0 -50 54 -64q56 -15 111 18t57 95v52q-53 -5 -86 -10.5
t-68 -16.5t-51.5 -29.5t-16.5 -44.5z" />
    <glyph glyph-name="ae" unicode="&#xe6;" horiz-adv-x="891" 
d="M603 505q98 0 166 -72.5t61 -205.5h-378q6 -70 47 -110.5t105 -40.5q84 0 123 64h92q-28 -67 -87 -106t-128 -39q-56 0 -106 26t-84 73q-22 -46 -69.5 -72.5t-107.5 -26.5q-77 0 -127 40.5t-50 107.5q0 159 306 162q0 118 -100 118q-25 0 -44.5 -7.5t-30 -18t-17 -21
t-8.5 -18.5l-2 -7h-81q9 69 56.5 111.5t127.5 42.5q113 0 155 -84q70 84 181 84zM602 431q-55 0 -94.5 -35.5t-51.5 -95.5h283q-9 59 -45.5 95t-91.5 36zM143 137q0 -49 54 -63q57 -15 111 18q53 31 57 89v50q-222 -4 -222 -94z" />
    <glyph glyph-name="ccedilla" unicode="&#xe7;" horiz-adv-x="581" 
d="M300 77q48 0 84.5 27t54.5 72h89q-15 -71 -70 -120t-126 -59l-25 -37q37 8 69.5 -13t32.5 -62q0 -38 -29.5 -64t-76.5 -26q-35 0 -61.5 15.5t-35.5 30.5l-9 15l48 27q18 -31 57 -31q21 0 32 9.5t11 23.5q0 13 -11 22.5t-32 9.5q-11 0 -21.5 -2.5t-15.5 -4.5l-5 -3l-28 36
l35 54q-86 13 -146.5 84t-60.5 169q0 108 72 181.5t168 73.5q81 0 149.5 -53t81.5 -135h-90q-16 48 -53.5 77t-87.5 29q-67 0 -109.5 -49.5t-42.5 -123.5t42.5 -123.5t109.5 -49.5z" />
    <glyph glyph-name="egrave" unicode="&#xe8;" horiz-adv-x="585" 
d="M325 555h-61l-104 125h107zM297 505q98 0 166 -72.5t61 -205.5h-378q6 -70 47 -110.5t105 -40.5q84 0 123 64h92q-28 -67 -87 -106t-128 -39q-98 0 -168 72.5t-70 186.5q0 112 69.5 181.5t167.5 69.5zM296 431q-55 0 -94.5 -35.5t-51.5 -95.5h283q-9 59 -45.5 95
t-91.5 36z" />
    <glyph glyph-name="eacute" unicode="&#xe9;" horiz-adv-x="585" 
d="M421 680l-104 -125h-61l58 125h107zM297 505q98 0 166 -72.5t61 -205.5h-378q6 -70 47 -110.5t105 -40.5q84 0 123 64h92q-28 -67 -87 -106t-128 -39q-98 0 -168 72.5t-70 186.5q0 112 69.5 181.5t167.5 69.5zM296 431q-55 0 -94.5 -35.5t-51.5 -95.5h283q-9 59 -45.5 95
t-91.5 36z" />
    <glyph glyph-name="ecircumflex" unicode="&#xea;" horiz-adv-x="585" 
d="M286 646l-53 -90h-81l99 154h83l99 -154h-81l-53 90h-13zM297 505q98 0 166 -72.5t61 -205.5h-378q6 -70 47 -110.5t105 -40.5q84 0 123 64h92q-28 -67 -87 -106t-128 -39q-98 0 -168 72.5t-70 186.5q0 112 69.5 181.5t167.5 69.5zM296 431q-55 0 -94.5 -35.5
t-51.5 -95.5h283q-9 59 -45.5 95t-91.5 36z" />
    <glyph glyph-name="edieresis" unicode="&#xeb;" horiz-adv-x="585" 
d="M207 551q-23 0 -39 16.5t-16 38.5q0 23 16 39t39 16t39 -16t16 -39q0 -22 -16 -38.5t-39 -16.5zM377 551q-23 0 -39 16.5t-16 38.5q0 23 16 39t39 16t39 -16t16 -39q0 -22 -16 -38.5t-39 -16.5zM297 505q98 0 166 -72.5t61 -205.5h-378q6 -70 47 -110.5t105 -40.5
q84 0 123 64h92q-28 -67 -87 -106t-128 -39q-98 0 -168 72.5t-70 186.5q0 112 69.5 181.5t167.5 69.5zM296 431q-55 0 -94.5 -35.5t-51.5 -95.5h283q-9 59 -45.5 95t-91.5 36z" />
    <glyph glyph-name="igrave" unicode="&#xec;" horiz-adv-x="228" 
d="M120 680l58 -125h-61l-104 125h107zM168 500v-500h-88v500h88z" />
    <glyph glyph-name="iacute" unicode="&#xed;" horiz-adv-x="228" 
d="M128 680h107l-104 -125h-61zM168 500v-500h-88v500h88z" />
    <glyph glyph-name="icircumflex" unicode="&#xee;" horiz-adv-x="228" 
d="M166 710l99 -154h-81l-53 90h-13l-53 -90h-81l99 154h83zM80 0v500h88v-500h-88z" />
    <glyph glyph-name="idieresis" unicode="&#xef;" horiz-adv-x="228" 
d="M39 561q-23 0 -39 16.5t-16 38.5q0 23 16 39t39 16t39 -16t16 -39q0 -22 -16 -38.5t-39 -16.5zM209 561q-23 0 -39 16.5t-16 38.5q0 23 16 39t39 16t39 -16t16 -39q0 -22 -16 -38.5t-39 -16.5zM168 500v-500h-88v500h88z" />
    <glyph glyph-name="eth" unicode="&#xf0;" horiz-adv-x="659" 
d="M452 612q108 -106 108 -311q0 -162 -65 -234t-175 -72q-96 0 -168 73.5t-72 181.5t72 181.5t168 73.5q25 0 49 -6t40.5 -14.5t29 -17.5t18.5 -15l6 -6q-18 77 -86 131l-104 -49l-23 49l75 35q-55 29 -113 41l34 67q95 -24 161 -69l139 65l23 -49zM320 77q67 0 109.5 49.5
t42.5 123.5t-42.5 123.5t-109.5 49.5t-109.5 -49.5t-42.5 -123.5t42.5 -123.5t109.5 -49.5z" />
    <glyph glyph-name="ntilde" unicode="&#xf1;" horiz-adv-x="576" 
d="M209 594q-17 2 -30.5 -7t-18.5 -19l-5 -9l-53 23q2 4 5 10.5t14.5 23t25 28.5t35 19.5t45.5 3.5q22 -4 52 -22.5t45 -20.5q17 -2 30.5 6.5t19.5 18.5l5 10l53 -24q-2 -4 -5 -11t-14 -23.5t-24.5 -28t-35.5 -19t-46 -2.5q-22 4 -52.5 22.5t-45.5 20.5zM315 505
q93 0 141.5 -63t48.5 -171v-271h-88v241q0 38 -4 67.5t-15.5 59t-35.5 45.5t-59 16q-58 0 -96.5 -39.5t-38.5 -104.5v-285h-88v500h58l18 -57h12q54 62 147 62z" />
    <glyph glyph-name="ograve" unicode="&#xf2;" horiz-adv-x="600" 
d="M275 680l58 -125h-61l-104 125h107zM300 -5q-96 0 -168 73.5t-72 181.5t72 181.5t168 73.5t168 -73.5t72 -181.5q0 -109 -71.5 -182t-168.5 -73zM300 77q67 0 109.5 49.5t42.5 123.5t-42.5 123.5t-109.5 49.5t-109.5 -49.5t-42.5 -123.5t42.5 -123.5t109.5 -49.5z" />
    <glyph glyph-name="oacute" unicode="&#xf3;" horiz-adv-x="600" 
d="M320 680h107l-104 -125h-61zM300 -5q-96 0 -168 73.5t-72 181.5t72 181.5t168 73.5t168 -73.5t72 -181.5q0 -109 -71.5 -182t-168.5 -73zM300 77q67 0 109.5 49.5t42.5 123.5t-42.5 123.5t-109.5 49.5t-109.5 -49.5t-42.5 -123.5t42.5 -123.5t109.5 -49.5z" />
    <glyph glyph-name="ocircumflex" unicode="&#xf4;" horiz-adv-x="600" 
d="M294 646l-53 -90h-81l99 154h83l99 -154h-81l-53 90h-13zM300 505q96 0 168 -73.5t72 -181.5q0 -109 -71.5 -182t-168.5 -73q-96 0 -168 73.5t-72 181.5t72 181.5t168 73.5zM300 77q67 0 109.5 49.5t42.5 123.5t-42.5 123.5t-109.5 49.5t-109.5 -49.5t-42.5 -123.5
t42.5 -123.5t109.5 -49.5z" />
    <glyph glyph-name="otilde" unicode="&#xf5;" horiz-adv-x="600" 
d="M465 635q-2 -4 -5 -11t-14 -23.5t-24.5 -28t-35.5 -19t-46 -2.5q-22 4 -52.5 22.5t-45.5 20.5q-17 2 -30.5 -7t-18.5 -19l-5 -9l-53 23q2 4 5 10.5t14.5 23t25 28.5t35 19.5t45.5 3.5q22 -4 52 -22.5t45 -20.5q17 -2 30.5 6.5t18.5 18.5l6 10zM300 -5q-96 0 -168 73.5
t-72 181.5t72 181.5t168 73.5t168 -73.5t72 -181.5q0 -109 -71.5 -182t-168.5 -73zM300 77q67 0 109.5 49.5t42.5 123.5t-42.5 123.5t-109.5 49.5t-109.5 -49.5t-42.5 -123.5t42.5 -123.5t109.5 -49.5z" />
    <glyph glyph-name="odieresis" unicode="&#xf6;" horiz-adv-x="600" 
d="M215 551q-23 0 -39 16.5t-16 38.5q0 23 16 39t39 16t39 -16t16 -39q0 -22 -16 -38.5t-39 -16.5zM385 551q-23 0 -39 16.5t-16 38.5q0 23 16 39t39 16t39 -16t16 -39q0 -22 -16 -38.5t-39 -16.5zM300 -5q-96 0 -168 73.5t-72 181.5t72 181.5t168 73.5t168 -73.5t72 -181.5
q0 -109 -71.5 -182t-168.5 -73zM300 77q67 0 109.5 49.5t42.5 123.5t-42.5 123.5t-109.5 49.5t-109.5 -49.5t-42.5 -123.5t42.5 -123.5t109.5 -49.5z" />
    <glyph glyph-name="divide" unicode="&#xf7;" horiz-adv-x="595" 
d="M298 427q-25 0 -42.5 17.5t-17.5 42.5t17.5 42.5t42.5 17.5t42.5 -17.5t17.5 -42.5t-17.5 -42.5t-42.5 -17.5zM60 335h475v-76h-475v76zM298 47q-25 0 -42.5 17.5t-17.5 42.5t17.5 42.5t42.5 17.5t42.5 -17.5t17.5 -42.5t-17.5 -42.5t-42.5 -17.5z" />
    <glyph glyph-name="oslash" unicode="&#xf8;" horiz-adv-x="590" 
d="M466 434q74 -76 74 -184q0 -109 -71.5 -182t-168.5 -73q-61 0 -118 33l-33 -47l-44 31l34 49q-79 76 -79 189q0 108 72 181.5t168 73.5q66 0 123 -37l32 46l45 -32zM148 250q0 -72 39 -120l190 272q-36 21 -77 21q-67 0 -109.5 -49.5t-42.5 -123.5zM300 77
q67 0 109.5 49.5t42.5 123.5q0 66 -35 114l-188 -269q31 -18 71 -18z" />
    <glyph glyph-name="ugrave" unicode="&#xf9;" horiz-adv-x="579" 
d="M337 555h-61l-104 125h107zM411 500h88v-500h-58l-16 53h-13q-51 -58 -140 -58q-94 0 -143 63t-49 171v271h88v-241q0 -188 121 -188q122 0 122 164v265z" />
    <glyph glyph-name="uacute" unicode="&#xfa;" horiz-adv-x="579" 
d="M408 680l-104 -125h-61l58 125h107zM411 500h88v-500h-58l-16 53h-13q-51 -58 -140 -58q-94 0 -143 63t-49 171v271h88v-241q0 -188 121 -188q122 0 122 164v265z" />
    <glyph glyph-name="ucircumflex" unicode="&#xfb;" horiz-adv-x="579" 
d="M283 646l-53 -90h-81l99 154h83l99 -154h-81l-53 90h-13zM411 500h88v-500h-58l-16 53h-13q-51 -58 -140 -58q-94 0 -143 63t-49 171v271h88v-241q0 -188 121 -188q122 0 122 164v265z" />
    <glyph glyph-name="udieresis" unicode="&#xfc;" horiz-adv-x="579" 
d="M205 551q-23 0 -39 16.5t-16 38.5q0 23 16 39t39 16t39 -16t16 -39q0 -22 -16 -38.5t-39 -16.5zM375 551q-23 0 -39 16.5t-16 38.5q0 23 16 39t39 16t39 -16t16 -39q0 -22 -16 -38.5t-39 -16.5zM411 500h88v-500h-58l-16 53h-13q-51 -58 -140 -58q-94 0 -143 63t-49 171
v271h88v-241q0 -188 121 -188q122 0 122 164v265z" />
    <glyph glyph-name="yacute" unicode="&#xfd;" horiz-adv-x="590" 
d="M413 680l-104 -125h-61l58 125h107zM450 500h90l-184 -519q-29 -87 -52 -120q-46 -66 -126 -66q-34 0 -63 10t-40 24l39 61q27 -19 60 -19q19 0 32.5 6t23.5 22t14.5 26t13.5 34l15 41h-41l-182 500h91l151 -414h11z" />
    <glyph glyph-name="thorn" unicode="&#xfe;" horiz-adv-x="607" 
d="M316 505q96 0 163.5 -72.5t67.5 -182.5t-67.5 -182.5t-163.5 -72.5q-97 0 -151 80v-275h-85v910h85v-263h16q53 58 135 58zM309 77q60 0 105 48t45 125t-45 125t-105 48q-57 0 -100.5 -44t-43.5 -129t43.5 -129t100.5 -44z" />
    <glyph glyph-name="ydieresis" unicode="&#xff;" horiz-adv-x="590" 
d="M207 551q-23 0 -39 16.5t-16 38.5q0 23 16 39t39 16t39 -16t16 -39q0 -22 -16 -38.5t-39 -16.5zM377 551q-23 0 -39 16.5t-16 38.5q0 23 16 39t39 16t39 -16t16 -39q0 -22 -16 -38.5t-39 -16.5zM450 500h90l-184 -519q-29 -87 -52 -120q-46 -66 -126 -66q-34 0 -63 10
t-40 24l39 61q27 -19 60 -19q19 0 32.5 6t23.5 22t14.5 26t13.5 34l15 41h-41l-182 500h91l151 -414h11z" />
    <glyph glyph-name="Amacron" unicode="&#x100;" horiz-adv-x="638" 
d="M484 857v-73h-330v73h330zM521 0l-59 183h-286l-59 -183h-97l236 700h126l236 -700h-97zM313 606l-109 -338h230l-109 338h-12z" />
    <glyph glyph-name="amacron" unicode="&#x101;" horiz-adv-x="539" 
d="M423 650v-70h-330v70h330zM445 128q0 -35 12.5 -48.5t41.5 -13.5v-66h-35q-69 0 -89 60q-49 -65 -146 -65q-75 0 -122 40.5t-47 105.5q0 49 24 82t79 51.5t84 24t98 13.5l21 3q-5 111 -106 111q-25 0 -44.5 -6.5t-29.5 -15.5t-16.5 -18t-8.5 -16l-2 -6h-86q7 57 57.5 99
t132.5 42q83 0 132.5 -50t49.5 -154v-173zM143 138q0 -50 54 -64q56 -15 111 18t57 95v52q-53 -5 -86 -10.5t-68 -16.5t-51.5 -29.5t-16.5 -44.5z" />
    <glyph glyph-name="Abreve" unicode="&#x102;" horiz-adv-x="638" 
d="M320 747q-60 0 -99.5 41.5t-39.5 91.5h76q0 -20 17 -40t45 -20q27 0 43 19.5t16 40.5h77q0 -51 -37.5 -92t-97.5 -41zM521 0l-59 183h-286l-59 -183h-97l236 700h126l236 -700h-97zM313 606l-109 -338h230l-109 338h-12z" />
    <glyph glyph-name="abreve" unicode="&#x103;" horiz-adv-x="539" 
d="M265 573q-57 0 -94.5 39.5t-37.5 87.5h72q0 -19 16 -38t43 -19t42 18.5t15 38.5h73q0 -48 -36 -87.5t-93 -39.5zM445 128q0 -35 12.5 -48.5t41.5 -13.5v-66h-35q-69 0 -89 60q-49 -65 -146 -65q-75 0 -122 40.5t-47 105.5q0 49 24 82t79 51.5t84 24t98 13.5l21 3
q-5 111 -106 111q-25 0 -44.5 -6.5t-29.5 -15.5t-16.5 -18t-8.5 -16l-2 -6h-86q7 57 57.5 99t132.5 42q83 0 132.5 -50t49.5 -154v-173zM143 138q0 -50 54 -64q56 -15 111 18t57 95v52q-53 -5 -86 -10.5t-68 -16.5t-51.5 -29.5t-16.5 -44.5z" />
    <glyph glyph-name="Aogonek" unicode="&#x104;" horiz-adv-x="638" 
d="M641 -131l3 -63q-23 -11 -54 -11q-44 0 -79 29.5t-35 79.5q0 56 45 97l-59 182h-286l-59 -183h-97l236 700h126l236 -700h-23q-47 -35 -47 -79q0 -38 34 -50.5t59 -1.5zM313 606l-109 -338h230l-109 338h-12z" />
    <glyph glyph-name="aogonek" unicode="&#x105;" horiz-adv-x="539" 
d="M527 -135l3 -60q-22 -11 -51 -11q-43 0 -76 28t-33 76q0 64 60 106q-40 10 -55 56q-49 -65 -146 -65q-75 0 -122 40.5t-47 105.5q0 49 24 82t79 51.5t84 24t98 13.5l21 3q-5 111 -106 111q-25 0 -44.5 -6.5t-29.5 -15.5t-16.5 -18t-8.5 -16l-2 -6h-86q7 57 57.5 99
t132.5 42q83 0 132.5 -50t49.5 -154v-173q0 -35 12.5 -48.5t41.5 -13.5v-66q-7 -4 -17 -10.5t-26.5 -29t-16.5 -46.5q0 -36 32 -48t56 -1zM143 138q0 -50 54 -64q56 -15 111 18t57 95v52q-53 -5 -86 -10.5t-68 -16.5t-51.5 -29.5t-16.5 -44.5z" />
    <glyph glyph-name="Cacute" unicode="&#x106;" horiz-adv-x="713" 
d="M399 880h128l-125 -125h-73zM663 200q-32 -90 -110.5 -147.5t-175.5 -57.5q-131 0 -224 100.5t-93 254.5t93 254.5t223 100.5q96 0 175 -56.5t112 -148.5h-103q-25 55 -73.5 85.5t-110.5 30.5q-98 0 -159.5 -73.5t-61.5 -192.5t61.5 -192.5t160.5 -73.5q63 0 111 31
t72 85h103z" />
    <glyph glyph-name="cacute" unicode="&#x107;" horiz-adv-x="581" 
d="M328 680h107l-104 -125h-61zM528 176q-17 -80 -82.5 -130.5t-145.5 -50.5q-96 0 -168 73.5t-72 181.5t72 181.5t168 73.5q81 0 149.5 -53t81.5 -135h-90q-16 48 -53.5 77t-87.5 29q-67 0 -109.5 -49.5t-42.5 -123.5t42.5 -123.5t109.5 -49.5q48 0 84.5 27t54.5 72h89z
" />
    <glyph glyph-name="Ccircumflex" unicode="&#x108;" horiz-adv-x="713" 
d="M363 845l-59 -90h-89l109 154h91l109 -154h-89l-59 90h-13zM377 84q63 0 111 31t72 85h103q-32 -90 -110.5 -147.5t-175.5 -57.5q-131 0 -224 100.5t-93 254.5t93 254.5t223 100.5q96 0 175 -56.5t112 -148.5h-103q-25 55 -73.5 85.5t-110.5 30.5q-98 0 -159.5 -73.5
t-61.5 -192.5t61.5 -192.5t160.5 -73.5z" />
    <glyph glyph-name="ccircumflex" unicode="&#x109;" horiz-adv-x="581" 
d="M289 646l-53 -90h-81l99 154h83l99 -154h-81l-53 90h-13zM300 77q48 0 84.5 27t54.5 72h89q-17 -80 -82.5 -130.5t-145.5 -50.5q-96 0 -168 73.5t-72 181.5t72 181.5t168 73.5q81 0 149.5 -53t81.5 -135h-90q-16 48 -53.5 77t-87.5 29q-67 0 -109.5 -49.5t-42.5 -123.5
t42.5 -123.5t109.5 -49.5z" />
    <glyph glyph-name="Cdotaccent" unicode="&#x10a;" horiz-adv-x="713" 
d="M363 746q-27 0 -46 19t-19 45q0 27 19 45.5t46 18.5q26 0 45 -18.5t19 -45.5q0 -26 -19 -45t-45 -19zM663 200q-32 -90 -110.5 -147.5t-175.5 -57.5q-131 0 -224 100.5t-93 254.5t93 254.5t223 100.5q96 0 175 -56.5t112 -148.5h-103q-25 55 -73.5 85.5t-110.5 30.5
q-98 0 -159.5 -73.5t-61.5 -192.5t61.5 -192.5t160.5 -73.5q63 0 111 31t72 85h103z" />
    <glyph glyph-name="cdotaccent" unicode="&#x10b;" horiz-adv-x="581" 
d="M296 577q-27 0 -46 19t-19 45q0 27 19 45.5t46 18.5q26 0 45 -18.5t19 -45.5q0 -26 -19 -45t-45 -19zM528 176q-17 -80 -82.5 -130.5t-145.5 -50.5q-96 0 -168 73.5t-72 181.5t72 181.5t168 73.5q81 0 149.5 -53t81.5 -135h-90q-16 48 -53.5 77t-87.5 29
q-67 0 -109.5 -49.5t-42.5 -123.5t42.5 -123.5t109.5 -49.5q48 0 84.5 27t54.5 72h89z" />
    <glyph glyph-name="Ccaron" unicode="&#x10c;" horiz-adv-x="713" 
d="M415 755h-91l-109 154h89l59 -90h13l59 90h89zM377 84q63 0 111 31t72 85h103q-32 -90 -110.5 -147.5t-175.5 -57.5q-131 0 -224 100.5t-93 254.5t93 254.5t223 100.5q96 0 175 -56.5t112 -148.5h-103q-25 55 -73.5 85.5t-110.5 30.5q-98 0 -159.5 -73.5t-61.5 -192.5
t61.5 -192.5t160.5 -73.5z" />
    <glyph glyph-name="ccaron" unicode="&#x10d;" horiz-adv-x="581" 
d="M337 556h-83l-99 154h81l53 -90h13l53 90h81zM300 77q48 0 84.5 27t54.5 72h89q-17 -80 -82.5 -130.5t-145.5 -50.5q-96 0 -168 73.5t-72 181.5t72 181.5t168 73.5q81 0 149.5 -53t81.5 -135h-90q-16 48 -53.5 77t-87.5 29q-67 0 -109.5 -49.5t-42.5 -123.5t42.5 -123.5
t109.5 -49.5z" />
    <glyph glyph-name="Dcaron" unicode="&#x10e;" horiz-adv-x="687" 
d="M356 755h-91l-109 154h89l59 -90h13l59 90h89zM302 700q139 0 232 -98t93 -252t-92.5 -252t-232.5 -98h-222v700h222zM302 88q108 0 168 72t60 190t-60.5 190t-167.5 72h-129v-524h129z" />
    <glyph glyph-name="dcaron" unicode="&#x10f;" horiz-adv-x="752" 
d="M442 425v285h85v-710h-58l-19 64h-16q-52 -69 -143 -69q-96 0 -163.5 72.5t-67.5 182.5t67.5 182.5t163.5 72.5q97 0 151 -80zM611 710h81l-36 -185h-59zM148 250q0 -77 45 -125t105 -48q57 0 100.5 44t43.5 129t-43.5 129t-100.5 44q-60 0 -105 -48t-45 -125z" />
    <glyph glyph-name="Dcroat" unicode="&#x110;" horiz-adv-x="747" 
d="M362 700q139 0 232 -98t93 -252t-92.5 -252t-232.5 -98h-222v326h-100v76h100v298h222zM362 88q108 0 168 72t60 190t-60.5 190t-167.5 72h-129v-210h177v-76h-177v-238h129z" />
    <glyph glyph-name="dcroat" unicode="&#x111;" horiz-adv-x="609" 
d="M617 630v-70h-90v-560h-58l-19 64h-16q-52 -69 -143 -69q-96 0 -163.5 72.5t-67.5 182.5t67.5 182.5t163.5 72.5q97 0 151 -80v135h-155v70h155v80h85v-80h90zM148 250q0 -77 45 -125t105 -48q57 0 100.5 44t43.5 129t-43.5 129t-100.5 44q-60 0 -105 -48t-45 -125z" />
    <glyph glyph-name="Emacron" unicode="&#x112;" horiz-adv-x="611" 
d="M138 857h330v-73h-330v73zM173 88h358v-88h-451v700h441v-87h-348v-215h318v-87h-318v-223z" />
    <glyph glyph-name="emacron" unicode="&#x113;" horiz-adv-x="585" 
d="M457 650v-70h-330v70h330zM297 505q98 0 166 -72.5t61 -205.5h-378q6 -70 47 -110.5t105 -40.5q84 0 123 64h92q-28 -67 -87 -106t-128 -39q-98 0 -168 72.5t-70 186.5q0 112 69.5 181.5t167.5 69.5zM296 431q-55 0 -94.5 -35.5t-51.5 -95.5h283q-9 59 -45.5 95t-91.5 36
z" />
    <glyph glyph-name="Ebreve" unicode="&#x114;" horiz-adv-x="611" 
d="M439 880q0 -51 -37.5 -92t-97.5 -41t-99.5 41.5t-39.5 91.5h76q0 -20 17 -40t45 -20q27 0 43 19.5t16 40.5h77zM173 88h358v-88h-451v700h441v-87h-348v-215h318v-87h-318v-223z" />
    <glyph glyph-name="ebreve" unicode="&#x115;" horiz-adv-x="585" 
d="M294 573q-57 0 -94.5 39.5t-37.5 87.5h72q0 -19 16 -38t43 -19t42 18.5t15 38.5h73q0 -48 -36 -87.5t-93 -39.5zM297 505q98 0 166 -72.5t61 -205.5h-378q6 -70 47 -110.5t105 -40.5q84 0 123 64h92q-28 -67 -87 -106t-128 -39q-98 0 -168 72.5t-70 186.5
q0 112 69.5 181.5t167.5 69.5zM296 431q-55 0 -94.5 -35.5t-51.5 -95.5h283q-9 59 -45.5 95t-91.5 36z" />
    <glyph glyph-name="Edotaccent" unicode="&#x116;" horiz-adv-x="611" 
d="M306 746q-27 0 -46 19t-19 45q0 27 19 45.5t46 18.5q26 0 45 -18.5t19 -45.5q0 -26 -19 -45t-45 -19zM173 88h358v-88h-451v700h441v-87h-348v-215h318v-87h-318v-223z" />
    <glyph glyph-name="edotaccent" unicode="&#x117;" horiz-adv-x="585" 
d="M293 577q-27 0 -46 19t-19 45q0 27 19 45.5t46 18.5q26 0 45 -18.5t19 -45.5q0 -26 -19 -45t-45 -19zM297 505q98 0 166 -72.5t61 -205.5h-378q6 -70 47 -110.5t105 -40.5q84 0 123 64h92q-28 -67 -87 -106t-128 -39q-98 0 -168 72.5t-70 186.5q0 112 69.5 181.5
t167.5 69.5zM296 431q-55 0 -94.5 -35.5t-51.5 -95.5h283q-9 59 -45.5 95t-91.5 36z" />
    <glyph glyph-name="Eogonek" unicode="&#x118;" horiz-adv-x="611" 
d="M349 0q-47 -35 -47 -79q0 -38 34 -50.5t59 -1.5l3 -63q-23 -11 -54 -11q-44 0 -79 29.5t-35 79.5q0 54 44 96h-194v700h441v-87h-348v-215h318v-87h-318v-223h358v-88h-182z" />
    <glyph glyph-name="eogonek" unicode="&#x119;" horiz-adv-x="585" 
d="M297 505q98 0 166 -72.5t61 -205.5h-378q6 -70 47 -110.5t105 -40.5q84 0 123 64h92q-24 -56 -69 -93t-101 -48q-8 -4 -19.5 -12.5t-25.5 -29.5t-14 -43q0 -36 32 -48t56 -1l3 -60q-22 -11 -51 -11q-43 0 -76 28t-33 76q0 59 51 99q-87 12 -146.5 82.5t-59.5 174.5
q0 112 69.5 181.5t167.5 69.5zM296 431q-55 0 -94.5 -35.5t-51.5 -95.5h283q-9 59 -45.5 95t-91.5 36z" />
    <glyph glyph-name="Ecaron" unicode="&#x11a;" horiz-adv-x="611" 
d="M347 755h-91l-109 154h89l59 -90h13l59 90h89zM173 88h358v-88h-451v700h441v-87h-348v-215h318v-87h-318v-223z" />
    <glyph glyph-name="ecaron" unicode="&#x11b;" horiz-adv-x="585" 
d="M334 556h-83l-99 154h81l53 -90h13l53 90h81zM297 505q98 0 166 -72.5t61 -205.5h-378q6 -70 47 -110.5t105 -40.5q84 0 123 64h92q-28 -67 -87 -106t-128 -39q-98 0 -168 72.5t-70 186.5q0 112 69.5 181.5t167.5 69.5zM296 431q-55 0 -94.5 -35.5t-51.5 -95.5h283
q-9 59 -45.5 95t-91.5 36z" />
    <glyph glyph-name="Gcircumflex" unicode="&#x11c;" horiz-adv-x="731" 
d="M362 845l-59 -90h-89l109 154h91l109 -154h-89l-59 90h-13zM374 280v82h287v-362h-55l-18 65h-13q-80 -70 -190 -70q-141 0 -233 100.5t-92 254.5q0 153 92 254t231 101q64 0 118 -23t86 -57.5t51 -67t23 -57.5h-98q-18 45 -66.5 83t-120.5 38q-100 0 -160.5 -76.5
t-60.5 -194.5t60.5 -194.5t164.5 -76.5q59 0 111.5 25.5t81.5 67.5v108h-199z" />
    <glyph glyph-name="gcircumflex" unicode="&#x11d;" horiz-adv-x="563" 
d="M279 646l-53 -90h-81l99 154h83l99 -154h-81l-53 90h-13zM343 97q79 0 118 -38t39 -99q0 -80 -62 -122.5t-154 -42.5q-110 0 -168 57.5t-43 139.5l76 53q-67 24 -67 84q0 63 63 94q-42 47 -42 113q0 72 51.5 121t133.5 49q59 0 105 -27q22 10 40.5 25.5t26.5 25.5l7 10
l51 -71q-28 -20 -75 -36q30 -44 30 -97q0 -73 -51 -122t-134 -49q-48 0 -89 19q-32 -18 -32 -45q0 -42 105 -42h71zM289 434q-45 0 -73 -28.5t-28 -70.5t27.5 -70t72.5 -28q46 0 73 28t27 71q0 42 -27 70t-72 28zM284 -126q53 0 92 23.5t39 64.5q0 21 -10 34.5t-30 19
t-34.5 7t-36.5 2.5q-57 2 -84 5l-67 -63q-6 -41 34.5 -67t96.5 -26z" />
    <glyph glyph-name="Gbreve" unicode="&#x11e;" horiz-adv-x="731" 
d="M374 747q-60 0 -99.5 41.5t-39.5 91.5h76q0 -20 17 -40t45 -20q27 0 43 19.5t16 40.5h77q0 -51 -37.5 -92t-97.5 -41zM374 280v82h287v-362h-55l-18 65h-13q-80 -70 -190 -70q-141 0 -233 100.5t-92 254.5q0 153 92 254t231 101q64 0 118 -23t86 -57.5t51 -67t23 -57.5
h-98q-18 45 -66.5 83t-120.5 38q-100 0 -160.5 -76.5t-60.5 -194.5t60.5 -194.5t164.5 -76.5q59 0 111.5 25.5t81.5 67.5v108h-199z" />
    <glyph glyph-name="gbreve" unicode="&#x11f;" horiz-adv-x="563" 
d="M286 573q-57 0 -94.5 39.5t-37.5 87.5h72q0 -19 16 -38t43 -19t42 18.5t15 38.5h73q0 -48 -36 -87.5t-93 -39.5zM343 97q79 0 118 -38t39 -99q0 -80 -62 -122.5t-154 -42.5q-110 0 -168 57.5t-43 139.5l76 53q-67 24 -67 84q0 63 63 94q-42 47 -42 113q0 72 51.5 121
t133.5 49q59 0 105 -27q22 10 40.5 25.5t26.5 25.5l7 10l51 -71q-28 -20 -75 -36q30 -44 30 -97q0 -73 -51 -122t-134 -49q-48 0 -89 19q-32 -18 -32 -45q0 -42 105 -42h71zM289 434q-45 0 -73 -28.5t-28 -70.5t27.5 -70t72.5 -28q46 0 73 28t27 71q0 42 -27 70t-72 28z
M284 -126q53 0 92 23.5t39 64.5q0 21 -10 34.5t-30 19t-34.5 7t-36.5 2.5q-57 2 -84 5l-67 -63q-6 -41 34.5 -67t96.5 -26z" />
    <glyph glyph-name="Gdotaccent" unicode="&#x120;" horiz-adv-x="731" 
d="M385 746q-27 0 -46 19t-19 45q0 27 19 45.5t46 18.5q26 0 45 -18.5t19 -45.5q0 -26 -19 -45t-45 -19zM374 280v82h287v-362h-55l-18 65h-13q-80 -70 -190 -70q-141 0 -233 100.5t-92 254.5q0 153 92 254t231 101q64 0 118 -23t86 -57.5t51 -67t23 -57.5h-98
q-18 45 -66.5 83t-120.5 38q-100 0 -160.5 -76.5t-60.5 -194.5t60.5 -194.5t164.5 -76.5q59 0 111.5 25.5t81.5 67.5v108h-199z" />
    <glyph glyph-name="gdotaccent" unicode="&#x121;" horiz-adv-x="563" 
d="M281 577q-27 0 -46 19t-19 45q0 27 19 45.5t46 18.5q26 0 45 -18.5t19 -45.5q0 -26 -19 -45t-45 -19zM343 97q79 0 118 -38t39 -99q0 -80 -62 -122.5t-154 -42.5q-110 0 -168 57.5t-43 139.5l76 53q-67 24 -67 84q0 63 63 94q-42 47 -42 113q0 72 51.5 121t133.5 49
q59 0 105 -27q22 10 40.5 25.5t26.5 25.5l7 10l51 -71q-28 -20 -75 -36q30 -44 30 -97q0 -73 -51 -122t-134 -49q-48 0 -89 19q-32 -18 -32 -45q0 -42 105 -42h71zM289 434q-45 0 -73 -28.5t-28 -70.5t27.5 -70t72.5 -28q46 0 73 28t27 71q0 42 -27 70t-72 28zM284 -126
q53 0 92 23.5t39 64.5q0 21 -10 34.5t-30 19t-34.5 7t-36.5 2.5q-57 2 -84 5l-67 -63q-6 -41 34.5 -67t96.5 -26z" />
    <glyph glyph-name="Gcommaaccent" unicode="&#x122;" horiz-adv-x="731" 
d="M374 280v82h287v-362h-55l-18 65h-13q-80 -70 -190 -70q-141 0 -233 100.5t-92 254.5q0 153 92 254t231 101q64 0 118 -23t86 -57.5t51 -67t23 -57.5h-98q-18 45 -66.5 83t-120.5 38q-100 0 -160.5 -76.5t-60.5 -194.5t60.5 -194.5t164.5 -76.5q59 0 111.5 25.5
t81.5 67.5v108h-199zM357 -48q28 0 42.5 -20.5t14.5 -54.5q0 -41 -21 -77.5t-41 -52.5l-21 -16l-25 27q36 31 46 85q-21 2 -36 17.5t-15 37.5q0 23 16 38.5t40 15.5z" />
    <glyph glyph-name="gcommaaccent" unicode="&#x123;" horiz-adv-x="563" 
d="M285 551q-26 0 -40.5 20t-14.5 52q0 39 20 74t40 50l19 15l25 -25q-35 -31 -45 -81q20 -2 34.5 -17t14.5 -35q0 -23 -15 -38t-38 -15zM343 97q79 0 118 -38t39 -99q0 -80 -62 -122.5t-154 -42.5q-110 0 -168 57.5t-43 139.5l76 53q-67 24 -67 84q0 63 63 94
q-42 47 -42 113q0 72 51.5 121t133.5 49q59 0 105 -27q22 10 40.5 25.5t26.5 25.5l7 10l51 -71q-28 -20 -75 -36q30 -44 30 -97q0 -73 -51 -122t-134 -49q-48 0 -89 19q-32 -18 -32 -45q0 -42 105 -42h71zM289 434q-45 0 -73 -28.5t-28 -70.5t27.5 -70t72.5 -28q46 0 73 28
t27 71q0 42 -27 70t-72 28zM284 -126q53 0 92 23.5t39 64.5q0 21 -10 34.5t-30 19t-34.5 7t-36.5 2.5q-57 2 -84 5l-67 -63q-6 -41 34.5 -67t96.5 -26z" />
    <glyph glyph-name="Hcircumflex" unicode="&#x124;" horiz-adv-x="680" 
d="M331 845l-59 -90h-89l109 154h91l109 -154h-89l-59 90h-13zM507 700h93v-700h-93v310h-334v-310h-93v700h93v-303h334v303z" />
    <glyph glyph-name="Hbar" unicode="&#x126;" horiz-adv-x="680" 
d="M507 700h93v-700h-93v310h-334v-310h-93v700h93v-122h334v122zM173 397h334v108h-334v-108z" />
    <glyph glyph-name="hbar" unicode="&#x127;" horiz-adv-x="580" 
d="M317 505q91 0 139.5 -63.5t48.5 -170.5v-271h-88v241q0 38 -4 67.5t-15.5 59t-35.5 45.5t-59 16q-58 0 -96.5 -39.5t-38.5 -104.5v-285h-88v560h-98v70h98v80h88v-80h144v-70h-144v-113h10q51 58 139 58z" />
    <glyph glyph-name="Itilde" unicode="&#x128;" horiz-adv-x="253" 
d="M308 837q-2 -5 -5.5 -12t-15.5 -25.5t-26.5 -31.5t-38.5 -21t-51 -3q-25 5 -58.5 25t-49.5 22q-19 2 -34 -7.5t-21 -19.5l-5 -11l-58 25q2 4 5.5 11.5t16.5 25.5t27.5 31t38.5 21.5t50 4.5q24 -5 57 -25.5t49 -22.5q19 -2 34 7.5t21 20.5l6 11zM173 700v-700h-93v700h93z
" />
    <glyph glyph-name="itilde" unicode="&#x129;" horiz-adv-x="228" 
d="M286 635q-2 -4 -5 -11t-14 -23.5t-24.5 -28t-35.5 -19t-46 -2.5q-22 4 -52.5 22.5t-45.5 20.5q-17 2 -30.5 -7t-18.5 -19l-5 -9l-53 23q2 4 5 10.5t14.5 23t25 28.5t35 19.5t45.5 3.5q22 -4 52 -22.5t45 -20.5q17 -2 30.5 6.5t19.5 18.5l5 10zM168 500v-500h-88v500h88z
" />
    <glyph glyph-name="Imacron" unicode="&#x12a;" horiz-adv-x="253" 
d="M-40 857h330v-73h-330v73zM173 700v-700h-93v700h93z" />
    <glyph glyph-name="imacron" unicode="&#x12b;" horiz-adv-x="228" 
d="M-41 650h330v-70h-330v70zM168 500v-500h-88v500h88z" />
    <glyph glyph-name="Ibreve" unicode="&#x12c;" horiz-adv-x="253" 
d="M263 880q0 -51 -37.5 -92t-97.5 -41t-99.5 41.5t-39.5 91.5h76q0 -20 17 -40t45 -20q27 0 43 19.5t16 40.5h77zM173 700v-700h-93v700h93z" />
    <glyph glyph-name="ibreve" unicode="&#x12d;" horiz-adv-x="228" 
d="M254 700q0 -48 -36 -87.5t-93 -39.5t-94.5 39.5t-37.5 87.5h72q0 -19 16 -38t43 -19t42 18.5t15 38.5h73zM168 500v-500h-88v500h88z" />
    <glyph glyph-name="Iogonek" unicode="&#x12e;" horiz-adv-x="253" 
d="M200 -131l3 -63q-23 -11 -54 -11q-44 0 -79 29.5t-35 79.5q0 56 45 97v699h93v-700h-19q-47 -35 -47 -79q0 -38 34 -50.5t59 -1.5z" />
    <glyph glyph-name="iogonek" unicode="&#x12f;" horiz-adv-x="228" 
d="M125 587q-27 0 -46 19t-19 45q0 27 19 45.5t46 18.5q26 0 45 -18.5t19 -45.5q0 -26 -19 -45t-45 -19zM94 -86q0 -36 32 -48t56 -1l3 -60q-22 -11 -51 -11q-43 0 -76 28t-33 76q0 61 55 102v500h88v-500h-14q-7 -4 -17 -10.5t-26.5 -29t-16.5 -46.5z" />
    <glyph glyph-name="Idotaccent" unicode="&#x130;" horiz-adv-x="253" 
d="M127 746q-27 0 -46 19t-19 45q0 27 19 45.5t46 18.5q26 0 45 -18.5t19 -45.5q0 -26 -19 -45t-45 -19zM173 700v-700h-93v700h93z" />
    <glyph glyph-name="dotlessi" unicode="&#x131;" horiz-adv-x="228" 
d="M168 500v-500h-88v500h88z" />
    <glyph glyph-name="IJ" unicode="&#x132;" horiz-adv-x="810" 
d="M173 700v-700h-93v700h93zM393 200q0 -57 38 -88t90 -31q115 0 115 149v470h94v-460q0 -123 -58.5 -184t-151.5 -61q-92 0 -154.5 54.5t-62.5 150.5h90z" />
    <glyph glyph-name="ij" unicode="&#x133;" horiz-adv-x="487" 
d="M145 587q-27 0 -46 19t-19 45q0 27 19 45.5t46 18.5q26 0 45 -18.5t19 -45.5q0 -26 -19 -45t-45 -19zM363 587q-27 0 -46 19t-19 45q0 27 19 45.5t46 18.5q26 0 45 -18.5t19 -45.5q0 -26 -19 -45t-45 -19zM188 500v-500h-88v500h88zM317 500h87v-549q0 -69 -38 -112.5
t-102 -43.5q-51 0 -88 32l38 61q18 -14 40 -14q63 0 63 85v541z" />
    <glyph glyph-name="Jcircumflex" unicode="&#x134;" horiz-adv-x="567" 
d="M483 909l109 -154h-89l-59 90h-13l-59 -90h-89l109 154h91zM393 230v470h94v-460q0 -123 -58.5 -184t-151.5 -61q-92 0 -154.5 54.5t-62.5 150.5h90q0 -57 38 -88t90 -31q115 0 115 149z" />
    <glyph glyph-name="jcircumflex" unicode="&#x135;" horiz-adv-x="425" 
d="M256 710l99 -154h-81l-53 90h-13l-53 -90h-81l99 154h83zM171 -41v541h87v-549q0 -69 -38 -112.5t-102 -43.5q-51 0 -88 32l38 61q18 -14 40 -14q63 0 63 85z" />
    <glyph glyph-name="Kcommaaccent" unicode="&#x136;" horiz-adv-x="626" 
d="M308 360l278 -360h-110l-248 317h-59v-317h-89v700h89v-297h59l219 297h109zM293 -48q28 0 42.5 -20.5t14.5 -54.5q0 -41 -21 -77.5t-41 -52.5l-21 -16l-25 27q36 31 46 85q-21 2 -36 17.5t-15 37.5q0 23 16 38.5t40 15.5z" />
    <glyph glyph-name="kcommaaccent" unicode="&#x137;" horiz-adv-x="549" 
d="M499 500l-199 -214l199 -286h-98l-160 224l-75 -81v-143h-86v710h86v-432h16l210 222h107zM272 -45q26 0 40.5 -20t14.5 -52q0 -25 -8 -48t-19.5 -39t-23.5 -28t-20 -18l-8 -6l-25 25q35 31 45 81q-20 2 -34.5 17t-14.5 35q0 23 15 38t38 15z" />
    <glyph glyph-name="Lacute" unicode="&#x139;" horiz-adv-x="591" 
d="M134 880h128l-125 -125h-73zM172 88h359v-88h-451v700h92v-612z" />
    <glyph glyph-name="lacute" unicode="&#x13a;" horiz-adv-x="247" 
d="M232 890l-104 -125h-61l58 125h107zM80 0v710h87v-710h-87z" />
    <glyph glyph-name="Lcommaaccent" unicode="&#x13b;" horiz-adv-x="591" 
d="M172 88h359v-88h-451v700h92v-612zM305 -48q28 0 42.5 -20.5t14.5 -54.5q0 -41 -21 -77.5t-41 -52.5l-21 -16l-25 27q36 31 46 85q-21 2 -36 17.5t-15 37.5q0 23 16 38.5t40 15.5z" />
    <glyph glyph-name="lcommaaccent" unicode="&#x13c;" horiz-adv-x="247" 
d="M167 710v-710h-87v710h87zM121 -45q26 0 40.5 -20t14.5 -52q0 -39 -20 -74t-40 -50l-19 -15l-25 25q35 31 45 81q-20 2 -34.5 17t-14.5 35q0 23 15 38t38 15z" />
    <glyph glyph-name="Lcaron" unicode="&#x13d;" horiz-adv-x="591" 
d="M298 730h99l-66 -175h-61zM172 88h359v-88h-451v700h92v-612z" />
    <glyph glyph-name="lcaron" unicode="&#x13e;" horiz-adv-x="392" 
d="M80 0v710h87v-710h-87zM251 710h81l-36 -185h-59z" />
    <glyph glyph-name="Ldot" unicode="&#x13f;" horiz-adv-x="591" 
d="M172 88h359v-88h-451v700h92v-612zM365 302q-27 0 -46 19t-19 45q0 27 19 45.5t46 18.5q26 0 45 -18.5t19 -45.5q0 -26 -19 -45t-45 -19z" />
    <glyph glyph-name="ldot" unicode="&#x140;" horiz-adv-x="247" 
d="M80 0v710h87v-710h-87zM296 430q26 0 45 -18.5t19 -45.5q0 -26 -19 -45t-45 -19q-27 0 -46 19t-19 45q0 27 19 45.5t46 18.5z" />
    <glyph glyph-name="Lslash" unicode="&#x141;" horiz-adv-x="671" 
d="M252 88h359v-88h-451v291l-110 -65v86l110 65v323h92v-269l188 111v-86l-188 -111v-257z" />
    <glyph glyph-name="lslash" unicode="&#x142;" horiz-adv-x="310" 
d="M280 500v-86l-81 -49v-365h-87v313l-82 -49v86l82 49v311h87v-259z" />
    <glyph glyph-name="Nacute" unicode="&#x143;" horiz-adv-x="712" 
d="M491 880l-125 -125h-73l70 125h128zM544 700h88v-700h-125l-329 557h-11v-557h-87v700h112l340 -570h12v570z" />
    <glyph glyph-name="nacute" unicode="&#x144;" horiz-adv-x="576" 
d="M416 680l-104 -125h-61l58 125h107zM315 505q93 0 141.5 -63t48.5 -171v-271h-88v241q0 38 -4 67.5t-15.5 59t-35.5 45.5t-59 16q-58 0 -96.5 -39.5t-38.5 -104.5v-285h-88v500h58l18 -57h12q54 62 147 62z" />
    <glyph glyph-name="Ncommaaccent" unicode="&#x145;" horiz-adv-x="712" 
d="M544 700h88v-700h-125l-329 557h-11v-557h-87v700h112l340 -570h12v570zM333 -48q28 0 42.5 -20.5t14.5 -54.5q0 -41 -21 -77.5t-41 -52.5l-21 -16l-25 27q36 31 46 85q-21 2 -36 17.5t-15 37.5q0 23 16 38.5t40 15.5z" />
    <glyph glyph-name="ncommaaccent" unicode="&#x146;" horiz-adv-x="576" 
d="M315 505q93 0 141.5 -63t48.5 -171v-271h-88v241q0 38 -4 67.5t-15.5 59t-35.5 45.5t-59 16q-58 0 -96.5 -39.5t-38.5 -104.5v-285h-88v500h58l18 -57h12q54 62 147 62zM292 -45q26 0 40.5 -20t14.5 -52q0 -25 -8 -48t-19.5 -39t-23.5 -28t-20 -18l-8 -6l-25 25
q35 31 45 81q-20 2 -34.5 17t-14.5 35q0 23 15 38t38 15z" />
    <glyph glyph-name="Ncaron" unicode="&#x147;" horiz-adv-x="712" 
d="M399 755h-91l-109 154h89l59 -90h13l59 90h89zM544 700h88v-700h-125l-329 557h-11v-557h-87v700h112l340 -570h12v570z" />
    <glyph glyph-name="ncaron" unicode="&#x148;" horiz-adv-x="576" 
d="M335 556h-83l-99 154h81l53 -90h13l53 90h81zM315 505q93 0 141.5 -63t48.5 -171v-271h-88v241q0 38 -4 67.5t-15.5 59t-35.5 45.5t-59 16q-58 0 -96.5 -39.5t-38.5 -104.5v-285h-88v500h58l18 -57h12q54 62 147 62z" />
    <glyph glyph-name="Eng" unicode="&#x14a;" horiz-adv-x="712" 
d="M544 700h88v-708q0 -103 -39 -149t-101 -46q-20 0 -40 3.5t-30 7.5l-10 4l3 75q5 -2 12.5 -4t27.5 -3.5t36 2.5t30.5 20t17.5 43l-210 357l-151 255h-11v-557h-87v700h112l340 -570h12v570z" />
    <glyph glyph-name="eng" unicode="&#x14b;" horiz-adv-x="576" 
d="M315 505q93 0 141.5 -63t48.5 -171v-286q0 -101 -41 -144.5t-101 -43.5q-18 0 -37.5 3.5t-29.5 7.5l-10 4v69q5 -2 14 -5t31.5 -4t40 6.5t31.5 34.5t14 72v256q0 38 -4 67.5t-15.5 59t-35.5 45.5t-59 16q-58 0 -96.5 -39.5t-38.5 -104.5v-285h-88v500h58l18 -57h12
q54 62 147 62z" />
    <glyph glyph-name="Omacron" unicode="&#x14c;" horiz-adv-x="804" 
d="M237 857h330v-73h-330v73zM403 -5q-140 0 -241.5 102t-101.5 253t101 253t241 102t241 -102t101 -253t-100.5 -253t-240.5 -102zM403 83q109 0 178 75.5t69 191.5t-69.5 191.5t-178.5 75.5q-108 0 -177.5 -75.5t-69.5 -191.5t69.5 -191.5t178.5 -75.5z" />
    <glyph glyph-name="omacron" unicode="&#x14d;" horiz-adv-x="600" 
d="M135 650h330v-70h-330v70zM300 -5q-96 0 -168 73.5t-72 181.5t72 181.5t168 73.5t168 -73.5t72 -181.5q0 -109 -71.5 -182t-168.5 -73zM300 77q67 0 109.5 49.5t42.5 123.5t-42.5 123.5t-109.5 49.5t-109.5 -49.5t-42.5 -123.5t42.5 -123.5t109.5 -49.5z" />
    <glyph glyph-name="Obreve" unicode="&#x14e;" horiz-adv-x="804" 
d="M538 880q0 -51 -37.5 -92t-97.5 -41t-99.5 41.5t-39.5 91.5h76q0 -20 17 -40t45 -20q27 0 43 19.5t16 40.5h77zM403 -5q-140 0 -241.5 102t-101.5 253t101 253t241 102t241 -102t101 -253t-100.5 -253t-240.5 -102zM403 83q109 0 178 75.5t69 191.5t-69.5 191.5
t-178.5 75.5q-108 0 -177.5 -75.5t-69.5 -191.5t69.5 -191.5t178.5 -75.5z" />
    <glyph glyph-name="obreve" unicode="&#x14f;" horiz-adv-x="600" 
d="M431 700q0 -48 -36 -87.5t-93 -39.5t-94.5 39.5t-37.5 87.5h72q0 -19 16 -38t43 -19t42 18.5t15 38.5h73zM300 -5q-96 0 -168 73.5t-72 181.5t72 181.5t168 73.5t168 -73.5t72 -181.5q0 -109 -71.5 -182t-168.5 -73zM300 77q67 0 109.5 49.5t42.5 123.5t-42.5 123.5
t-109.5 49.5t-109.5 -49.5t-42.5 -123.5t42.5 -123.5t109.5 -49.5z" />
    <glyph glyph-name="Ohungarumlaut" unicode="&#x150;" horiz-adv-x="804" 
d="M355 880h102l-103 -125h-74zM498 880h102l-103 -125h-74zM403 -5q-140 0 -241.5 102t-101.5 253t101 253t241 102t241 -102t101 -253t-100.5 -253t-240.5 -102zM403 83q109 0 178 75.5t69 191.5t-69.5 191.5t-178.5 75.5q-108 0 -177.5 -75.5t-69.5 -191.5t69.5 -191.5
t178.5 -75.5z" />
    <glyph glyph-name="ohungarumlaut" unicode="&#x151;" horiz-adv-x="600" 
d="M261 680h93l-94 -125h-67zM391 680h93l-94 -125h-67zM300 -5q-96 0 -168 73.5t-72 181.5t72 181.5t168 73.5t168 -73.5t72 -181.5q0 -109 -71.5 -182t-168.5 -73zM300 77q67 0 109.5 49.5t42.5 123.5t-42.5 123.5t-109.5 49.5t-109.5 -49.5t-42.5 -123.5t42.5 -123.5
t109.5 -49.5z" />
    <glyph glyph-name="OE" unicode="&#x152;" horiz-adv-x="1181" 
d="M743 88h358v-88h-451v110q-97 -115 -247 -115q-140 0 -241.5 102t-101.5 253t101 253t241 102q151 0 248 -116v111h441v-87h-348v-215h318v-87h-318v-223zM403 83q109 0 178 75.5t69 191.5t-69.5 191.5t-178.5 75.5q-108 0 -177.5 -75.5t-69.5 -191.5t69.5 -191.5
t178.5 -75.5z" />
    <glyph glyph-name="oe" unicode="&#x153;" horiz-adv-x="977" 
d="M689 505q98 0 166 -72.5t61 -205.5h-378q6 -70 47 -110.5t105 -40.5q84 0 123 64h92q-28 -67 -87 -106t-128 -39q-59 0 -111 28.5t-84 79.5q-34 -51 -85.5 -79.5t-109.5 -28.5q-96 0 -168 73.5t-72 181.5t72 181.5t168 73.5q58 0 108.5 -29t82.5 -79q33 51 85.5 79.5
t112.5 28.5zM688 431q-55 0 -94.5 -35.5t-51.5 -95.5h283q-9 59 -45.5 95t-91.5 36zM300 77q67 0 109.5 49.5t42.5 123.5t-42.5 123.5t-109.5 49.5t-109.5 -49.5t-42.5 -123.5t42.5 -123.5t109.5 -49.5z" />
    <glyph glyph-name="Racute" unicode="&#x154;" horiz-adv-x="637" 
d="M424 880l-125 -125h-73l70 125h128zM577 0h-101l-185 280h-126v-280h-85v700h242q92 0 157 -55t65 -150q0 -77 -44 -131.5t-112 -74.5zM165 618v-256h147q58 0 101 34t43 99q0 64 -42 93.5t-102 29.5h-147z" />
    <glyph glyph-name="racute" unicode="&#x155;" horiz-adv-x="386" 
d="M313 680l-104 -125h-61l58 125h107zM305 505h31v-86q-20 4 -41 4q-53 0 -90 -32t-37 -96v-295h-88v500h58l17 -56h14q53 61 136 61z" />
    <glyph glyph-name="Rcommaaccent" unicode="&#x156;" horiz-adv-x="637" 
d="M388 289l189 -289h-101l-185 280h-126v-280h-85v700h242q92 0 157 -55t65 -150q0 -77 -44 -131.5t-112 -74.5zM165 618v-256h147q58 0 101 34t43 99q0 64 -42 93.5t-102 29.5h-147zM299 -48q28 0 42.5 -20.5t14.5 -54.5q0 -41 -21 -77.5t-41 -52.5l-21 -16l-25 27
q36 31 46 85q-21 2 -36 17.5t-15 37.5q0 23 16 38.5t40 15.5z" />
    <glyph glyph-name="rcommaaccent" unicode="&#x157;" horiz-adv-x="386" 
d="M305 505h31v-86q-20 4 -41 4q-53 0 -90 -32t-37 -96v-295h-88v500h58l17 -56h14q53 61 136 61zM124 -45q26 0 40.5 -20t14.5 -52q0 -25 -8 -48t-19.5 -39t-23.5 -28t-20 -18l-8 -6l-25 25q35 31 45 81q-20 2 -34.5 17t-14.5 35q0 23 15 38t38 15z" />
    <glyph glyph-name="Rcaron" unicode="&#x158;" horiz-adv-x="637" 
d="M345 755h-91l-109 154h89l59 -90h13l59 90h89zM577 0h-101l-185 280h-126v-280h-85v700h242q92 0 157 -55t65 -150q0 -77 -44 -131.5t-112 -74.5zM165 618v-256h147q58 0 101 34t43 99q0 64 -42 93.5t-102 29.5h-147z" />
    <glyph glyph-name="rcaron" unicode="&#x159;" horiz-adv-x="386" 
d="M247 556h-83l-99 154h81l53 -90h13l53 90h81zM169 444q53 61 136 61h31v-86q-20 4 -41 4q-53 0 -90 -32t-37 -96v-295h-88v500h58l17 -56h14z" />
    <glyph glyph-name="Sacute" unicode="&#x15a;" horiz-adv-x="613" 
d="M329 880h128l-125 -125h-73zM553 182q0 -86 -67.5 -136.5t-164.5 -50.5q-113 0 -187 65t-74 151h90q4 -57 55 -93.5t117 -36.5q54 0 96 25t42 75q0 44 -35.5 70.5t-118.5 59.5q-43 17 -63.5 26t-58 30t-56 40t-34 49.5t-15.5 65.5q0 81 66 132.5t160 51.5
q101 0 164.5 -59.5t63.5 -131.5h-90q-5 44 -42 74.5t-99 30.5q-57 0 -93.5 -26.5t-36.5 -65.5q0 -64 141 -121q7 -4 11 -5q33 -14 46 -19.5t43.5 -20t45 -25t36.5 -28.5t32 -35.5t18 -41t8 -50.5z" />
    <glyph glyph-name="sacute" unicode="&#x15b;" horiz-adv-x="503" 
d="M268 680h107l-104 -125h-61zM433 143q0 -68 -49 -108t-124 -40q-84 0 -137 48t-53 118h81q0 -44 32 -69t76 -25q38 0 64.5 18.5t26.5 53.5q0 34 -26 51t-78 31q-27 7 -43.5 12.5t-41.5 17.5t-39.5 26t-25.5 37t-11 52q0 65 46.5 102t118.5 37q79 0 126 -43t47 -99h-81
q0 28 -26.5 49.5t-65.5 21.5q-35 0 -58.5 -18.5t-23.5 -48.5q0 -31 25 -47t71 -28q30 -8 47.5 -13.5t44 -18t41 -26.5t25.5 -37.5t11 -53.5z" />
    <glyph glyph-name="Scircumflex" unicode="&#x15c;" horiz-adv-x="613" 
d="M298 845l-59 -90h-89l109 154h91l109 -154h-89l-59 90h-13zM324 402q33 -14 46 -19.5t43.5 -20t45 -25t36.5 -28.5t32 -35.5t18 -41t8 -50.5q0 -86 -67.5 -136.5t-164.5 -50.5q-113 0 -187 65t-74 151h90q4 -57 55 -93.5t117 -36.5q54 0 96 25t42 75q0 44 -35.5 70.5
t-118.5 59.5q-43 17 -63.5 26t-58 30t-56 40t-34 49.5t-15.5 65.5q0 81 66 132.5t160 51.5q101 0 164.5 -59.5t63.5 -131.5h-90q-5 44 -42 74.5t-99 30.5q-57 0 -93.5 -26.5t-36.5 -65.5q0 -64 141 -121q7 -4 11 -5z" />
    <glyph glyph-name="scircumflex" unicode="&#x15d;" horiz-adv-x="503" 
d="M240 646l-53 -90h-81l99 154h83l99 -154h-81l-53 90h-13zM264 292q30 -8 47.5 -13.5t44 -18t41 -26.5t25.5 -37.5t11 -53.5q0 -68 -49 -108t-124 -40q-84 0 -137 48t-53 118h81q0 -44 32 -69t76 -25q38 0 64.5 18.5t26.5 53.5q0 34 -26 51t-78 31q-27 7 -43.5 12.5
t-41.5 17.5t-39.5 26t-25.5 37t-11 52q0 65 46.5 102t118.5 37q79 0 126 -43t47 -99h-81q0 28 -26.5 49.5t-65.5 21.5q-35 0 -58.5 -18.5t-23.5 -48.5q0 -31 25 -47t71 -28z" />
    <glyph glyph-name="Scedilla" unicode="&#x15e;" horiz-adv-x="613" 
d="M553 182q0 -79 -57 -128t-144 -58l-19 -28q39 9 73.5 -13.5t34.5 -65.5q0 -40 -31.5 -67t-80.5 -27q-23 0 -43 6.5t-32 16t-20.5 19t-11.5 15.5l-4 7l50 28q19 -32 60 -32q22 0 33.5 9.5t11.5 24.5q0 14 -11.5 24t-33.5 10q-11 0 -22 -2.5t-16 -5.5l-6 -3l-29 38l30 47
q-99 11 -162 73t-63 141h90q4 -57 55 -93.5t117 -36.5q54 0 96 25t42 75q0 44 -35.5 70.5t-118.5 59.5q-43 17 -63.5 26t-58 30t-56 40t-34 49.5t-15.5 65.5q0 81 66 132.5t160 51.5q101 0 164.5 -59.5t63.5 -131.5h-90q-5 44 -42 74.5t-99 30.5q-57 0 -93.5 -26.5
t-36.5 -65.5q0 -64 141 -121q7 -4 11 -5q33 -14 46 -19.5t43.5 -20t45 -25t36.5 -28.5t32 -35.5t18 -41t8 -50.5z" />
    <glyph glyph-name="scedilla" unicode="&#x15f;" horiz-adv-x="503" 
d="M433 143q0 -60 -39 -99t-101 -47l-25 -37q37 8 69.5 -13t32.5 -62q0 -38 -29.5 -64t-76.5 -26q-35 0 -61.5 15.5t-35.5 30.5l-9 15l48 27q18 -31 57 -31q21 0 32 9.5t11 23.5q0 13 -11 22.5t-32 9.5q-11 0 -21.5 -2.5t-15.5 -4.5l-5 -3l-28 36l35 54q-72 10 -115 55.5
t-43 108.5h81q0 -44 32 -69t76 -25q38 0 64.5 18.5t26.5 53.5q0 34 -26 51t-78 31q-27 7 -43.5 12.5t-41.5 17.5t-39.5 26t-25.5 37t-11 52q0 65 46.5 102t118.5 37q79 0 126 -43t47 -99h-81q0 28 -26.5 49.5t-65.5 21.5q-35 0 -58.5 -18.5t-23.5 -48.5q0 -31 25 -47t71 -28
q30 -8 47.5 -13.5t44 -18t41 -26.5t25.5 -37.5t11 -53.5z" />
    <glyph glyph-name="Scaron" unicode="&#x160;" horiz-adv-x="613" 
d="M348 755h-91l-109 154h89l59 -90h13l59 90h89zM324 402q33 -14 46 -19.5t43.5 -20t45 -25t36.5 -28.5t32 -35.5t18 -41t8 -50.5q0 -86 -67.5 -136.5t-164.5 -50.5q-113 0 -187 65t-74 151h90q4 -57 55 -93.5t117 -36.5q54 0 96 25t42 75q0 44 -35.5 70.5t-118.5 59.5
q-43 17 -63.5 26t-58 30t-56 40t-34 49.5t-15.5 65.5q0 81 66 132.5t160 51.5q101 0 164.5 -59.5t63.5 -131.5h-90q-5 44 -42 74.5t-99 30.5q-57 0 -93.5 -26.5t-36.5 -65.5q0 -64 141 -121q7 -4 11 -5z" />
    <glyph glyph-name="scaron" unicode="&#x161;" horiz-adv-x="503" 
d="M288 556h-83l-99 154h81l53 -90h13l53 90h81zM264 292q30 -8 47.5 -13.5t44 -18t41 -26.5t25.5 -37.5t11 -53.5q0 -68 -49 -108t-124 -40q-84 0 -137 48t-53 118h81q0 -44 32 -69t76 -25q38 0 64.5 18.5t26.5 53.5q0 34 -26 51t-78 31q-27 7 -43.5 12.5t-41.5 17.5
t-39.5 26t-25.5 37t-11 52q0 65 46.5 102t118.5 37q79 0 126 -43t47 -99h-81q0 28 -26.5 49.5t-65.5 21.5q-35 0 -58.5 -18.5t-23.5 -48.5q0 -31 25 -47t71 -28z" />
    <glyph glyph-name="uni0162" unicode="&#x162;" horiz-adv-x="532" 
d="M313 0h-27l-22 -32q39 9 73.5 -13.5t34.5 -65.5q0 -40 -31.5 -67t-80.5 -27q-23 0 -43 6.5t-32 16t-20.5 19t-12.5 15.5l-3 7l50 28q19 -32 60 -32q22 0 33.5 9.5t11.5 24.5q0 14 -11.5 24t-33.5 10q-11 0 -22 -2.5t-17 -5.5l-5 -3l-29 38l33 51v612h-189v87h472v-87
h-189v-613z" />
    <glyph glyph-name="uni0163" unicode="&#x163;" horiz-adv-x="435" 
d="M276 -40q37 8 69.5 -13t32.5 -62q0 -38 -29.5 -64t-76.5 -26q-35 0 -61.5 15.5t-35.5 30.5l-9 15l48 27q18 -31 57 -31q21 0 32 9.5t11 23.5q0 13 -11 22.5t-32 9.5q-11 0 -21.5 -2.5t-15.5 -4.5l-5 -3l-28 36l38 59q-43 15 -67.5 54.5t-24.5 94.5v275h-87v65h31
q29 0 48 19t19 50v90h74v-150h121v-73h-120v-268q0 -85 64 -85q22 0 40 14l38 -61q-32 -27 -75 -32z" />
    <glyph glyph-name="Tcaron" unicode="&#x164;" horiz-adv-x="532" 
d="M309 755h-91l-109 154h89l59 -90h13l59 90h89zM30 700h472v-87h-189v-613h-94v613h-189v87z" />
    <glyph glyph-name="tcaron" unicode="&#x165;" horiz-adv-x="455" 
d="M327 710h81l-56 -145h-59zM337 88l38 -61q-37 -32 -88 -32q-64 0 -102 43.5t-38 112.5v275h-87v65h31q29 0 48 19t19 50v90h74v-150h121v-73h-120v-268q0 -85 64 -85q22 0 40 14z" />
    <glyph glyph-name="Tbar" unicode="&#x166;" horiz-adv-x="532" 
d="M502 613h-189v-114h128v-73h-128v-426h-94v426h-128v73h128v114h-189v87h472v-87z" />
    <glyph glyph-name="tbar" unicode="&#x167;" horiz-adv-x="435" 
d="M337 88l38 -61q-37 -32 -88 -32q-64 0 -102 43.5t-38 112.5v118h-87v70h87v87h-87v65h31q29 0 48 19t19 50v90h74v-150h121v-73h-120v-88h122v-70h-122v-110q0 -85 64 -85q22 0 40 14z" />
    <glyph glyph-name="Utilde" unicode="&#x168;" horiz-adv-x="704" 
d="M533 837q-2 -5 -5.5 -12t-15.5 -25.5t-26.5 -31.5t-38.5 -21t-51 -3q-25 5 -58.5 25t-49.5 22q-19 2 -34 -7.5t-20 -19.5l-6 -11l-58 25q2 4 5.5 11.5t16.5 25.5t27.5 31t38.5 21.5t50 4.5q24 -5 57 -25.5t49 -22.5q19 -2 34 7.5t21 20.5l6 11zM634 700v-400
q0 -153 -78.5 -229t-202.5 -76t-203.5 76t-79.5 229v400h94v-390q0 -117 52 -172t137 -55t136 55t51 172v390h94z" />
    <glyph glyph-name="utilde" unicode="&#x169;" horiz-adv-x="579" 
d="M232 594q-17 2 -30.5 -7t-18.5 -19l-5 -9l-53 23q2 4 5 10.5t14.5 23t25 28.5t35 19.5t45.5 3.5q22 -4 52 -22.5t45 -20.5q17 -2 30.5 6.5t18.5 18.5l6 10l53 -24q-2 -4 -5 -11t-14 -23.5t-24.5 -28t-35.5 -19t-46 -2.5q-22 4 -52.5 22.5t-45.5 20.5zM411 500h88v-500
h-58l-16 53h-13q-51 -58 -140 -58q-94 0 -143 63t-49 171v271h88v-241q0 -188 121 -188q122 0 122 164v265z" />
    <glyph glyph-name="Umacron" unicode="&#x16a;" horiz-adv-x="704" 
d="M187 857h330v-73h-330v73zM634 700v-400q0 -153 -78.5 -229t-202.5 -76t-203.5 76t-79.5 229v400h94v-390q0 -117 52 -172t137 -55t136 55t51 172v390h94z" />
    <glyph glyph-name="umacron" unicode="&#x16b;" horiz-adv-x="579" 
d="M455 650v-70h-330v70h330zM411 500h88v-500h-58l-16 53h-13q-51 -58 -140 -58q-94 0 -143 63t-49 171v271h88v-241q0 -188 121 -188q122 0 122 164v265z" />
    <glyph glyph-name="Ubreve" unicode="&#x16c;" horiz-adv-x="704" 
d="M489 880q0 -51 -37.5 -92t-97.5 -41t-99.5 41.5t-39.5 91.5h76q0 -20 17 -40t45 -20q27 0 43 19.5t16 40.5h77zM634 700v-400q0 -153 -78.5 -229t-202.5 -76t-203.5 76t-79.5 229v400h94v-390q0 -117 52 -172t137 -55t136 55t51 172v390h94z" />
    <glyph glyph-name="ubreve" unicode="&#x16d;" horiz-adv-x="579" 
d="M291 573q-57 0 -94.5 39.5t-37.5 87.5h72q0 -19 16 -38t43 -19t42 18.5t15 38.5h73q0 -48 -36 -87.5t-93 -39.5zM411 500h88v-500h-58l-16 53h-13q-51 -58 -140 -58q-94 0 -143 63t-49 171v271h88v-241q0 -188 121 -188q122 0 122 164v265z" />
    <glyph glyph-name="Uring" unicode="&#x16e;" horiz-adv-x="704" 
d="M352 680q-44 0 -75 30.5t-31 73.5t31 74t75 31q43 0 74 -31t31 -74t-31 -73.5t-74 -30.5zM352 741q17 0 29 13t12 30t-12 30t-29 13q-18 0 -30 -12.5t-12 -30.5t12 -30.5t30 -12.5zM634 700v-400q0 -153 -78.5 -229t-202.5 -76t-203.5 76t-79.5 229v400h94v-390
q0 -117 52 -172t137 -55t136 55t51 172v390h94z" />
    <glyph glyph-name="uring" unicode="&#x16f;" horiz-adv-x="579" 
d="M290 535q-40 0 -68 28t-28 67t28 67t68 28q39 0 67.5 -28t28.5 -67t-28.5 -67t-67.5 -28zM290 669q-16 0 -27 -11.5t-11 -27.5t11 -27.5t27 -11.5t27 11.5t11 27.5t-11 27.5t-27 11.5zM411 500h88v-500h-58l-16 53h-13q-51 -58 -140 -58q-94 0 -143 63t-49 171v271h88
v-241q0 -188 121 -188q122 0 122 164v265z" />
    <glyph glyph-name="Uhungarumlaut" unicode="&#x170;" horiz-adv-x="704" 
d="M302 880h102l-103 -125h-74zM445 880h102l-103 -125h-74zM634 700v-400q0 -153 -78.5 -229t-202.5 -76t-203.5 76t-79.5 229v400h94v-390q0 -117 52 -172t137 -55t136 55t51 172v390h94z" />
    <glyph glyph-name="uhungarumlaut" unicode="&#x171;" horiz-adv-x="579" 
d="M345 680l-94 -125h-67l68 125h93zM381 555h-67l68 125h93zM411 500h88v-500h-58l-16 53h-13q-51 -58 -140 -58q-94 0 -143 63t-49 171v271h88v-241q0 -188 121 -188q122 0 122 164v265z" />
    <glyph glyph-name="Uogonek" unicode="&#x172;" horiz-adv-x="704" 
d="M540 700h94v-400q0 -136 -63 -211.5t-168 -90.5q-44 -34 -44 -77q0 -38 34 -50.5t59 -1.5l3 -63q-23 -11 -54 -11q-44 0 -79 29.5t-35 79.5q0 52 40 92q-114 8 -185.5 84t-71.5 220v400h94v-390q0 -117 52 -172t137 -55t136 55t51 172v390z" />
    <glyph glyph-name="uogonek" unicode="&#x173;" horiz-adv-x="579" 
d="M527 -135l3 -60q-22 -11 -51 -11q-43 0 -76 28t-33 76q0 69 68 111l-13 44h-13q-51 -58 -140 -58q-94 0 -143 63t-49 171v271h88v-241q0 -188 121 -188q122 0 122 164v265h88v-500q-7 -4 -17 -10.5t-26.5 -29t-16.5 -46.5q0 -36 32 -48t56 -1z" />
    <glyph glyph-name="Wcircumflex" unicode="&#x174;" horiz-adv-x="952" 
d="M462 845l-59 -90h-89l109 154h91l109 -154h-89l-59 90h-13zM812 700h95l-172 -700h-136l-117 527h-12l-117 -527h-136l-172 700h95l141 -597h12l121 547h124l121 -547h12z" />
    <glyph glyph-name="wcircumflex" unicode="&#x175;" horiz-adv-x="792" 
d="M400 646l-53 -90h-81l99 154h83l99 -154h-81l-53 90h-13zM645 500h87l-119 -500h-132l-79 340h-12l-79 -340h-132l-119 500h87l93 -421h12l89 381h110l90 -381h11z" />
    <glyph glyph-name="Ycircumflex" unicode="&#x176;" horiz-adv-x="653" 
d="M320 845l-59 -90h-89l109 154h91l109 -154h-89l-59 90h-13zM502 700h111l-240 -349v-351h-93v351l-240 349h110l169 -254h14z" />
    <glyph glyph-name="ycircumflex" unicode="&#x177;" horiz-adv-x="590" 
d="M283 646l-53 -90h-81l99 154h83l99 -154h-81l-53 90h-13zM450 500h90l-184 -519q-29 -87 -52 -120q-46 -66 -126 -66q-34 0 -63 10t-40 24l39 61q27 -19 60 -19q19 0 32.5 6t23.5 22t14.5 26t13.5 34l15 41h-41l-182 500h91l151 -414h11z" />
    <glyph glyph-name="Ydieresis" unicode="&#x178;" horiz-adv-x="653" 
d="M204 749q-26 0 -44 18.5t-18 43.5q0 26 18 43.5t44 17.5t43.5 -17.5t17.5 -43.5t-18 -44t-43 -18zM444 749q-26 0 -44 18.5t-18 43.5q0 26 18 43.5t44 17.5t43.5 -17.5t17.5 -43.5t-18 -44t-43 -18zM502 700h111l-240 -349v-351h-93v351l-240 349h110l169 -254h14z" />
    <glyph glyph-name="Zacute" unicode="&#x179;" horiz-adv-x="601" 
d="M442 880l-125 -125h-73l70 125h128zM189 88h352v-88h-481v52l347 561h-327v87h451v-51z" />
    <glyph glyph-name="zacute" unicode="&#x17a;" horiz-adv-x="520" 
d="M379 680l-104 -125h-61l58 125h107zM184 75h266v-75h-380v46l256 379h-246v75h360v-46z" />
    <glyph glyph-name="Zdotaccent" unicode="&#x17b;" horiz-adv-x="601" 
d="M303 746q-27 0 -46 19t-19 45q0 27 19 45.5t46 18.5q26 0 45 -18.5t19 -45.5q0 -26 -19 -45t-45 -19zM189 88h352v-88h-481v52l347 561h-327v87h451v-51z" />
    <glyph glyph-name="zdotaccent" unicode="&#x17c;" horiz-adv-x="520" 
d="M259 577q-27 0 -46 19t-19 45q0 27 19 45.5t46 18.5q26 0 45 -18.5t19 -45.5q0 -26 -19 -45t-45 -19zM184 75h266v-75h-380v46l256 379h-246v75h360v-46z" />
    <glyph glyph-name="Zcaron" unicode="&#x17d;" horiz-adv-x="601" 
d="M346 755h-91l-109 154h89l59 -90h13l59 90h89zM189 88h352v-88h-481v52l347 561h-327v87h451v-51z" />
    <glyph glyph-name="zcaron" unicode="&#x17e;" horiz-adv-x="520" 
d="M300 556h-83l-99 154h81l53 -90h13l53 90h81zM184 75h266v-75h-380v46l256 379h-246v75h360v-46z" />
    <glyph glyph-name="florin" unicode="&#x192;" horiz-adv-x="551" 
d="M428 629q-63 0 -77 -85l-18 -115h129l-11 -71h-130l-70 -440q-9 -55 -46.5 -89t-91.5 -34q-14 0 -35 2.5t-34 4.5l-14 3l12 72q43 -6 61 -6q61 0 77 95l64 392h-100l11 71h100l25 153q9 55 46 89t91 34q15 0 36 -2.5t35 -4.5l13 -3l-12 -72q-43 6 -61 6z" />
    <glyph glyph-name="uni01CD" unicode="&#x1cd;" horiz-adv-x="638" 
d="M362 755h-91l-109 154h89l59 -90h13l59 90h89zM521 0l-59 183h-286l-59 -183h-97l236 700h126l236 -700h-97zM313 606l-109 -338h230l-109 338h-12z" />
    <glyph glyph-name="uni01CE" unicode="&#x1ce;" horiz-adv-x="539" 
d="M304 556h-83l-99 154h81l53 -90h13l53 90h81zM445 128q0 -35 12.5 -48.5t41.5 -13.5v-66h-35q-69 0 -89 60q-49 -65 -146 -65q-75 0 -122 40.5t-47 105.5q0 49 24 82t79 51.5t84 24t98 13.5l21 3q-5 111 -106 111q-25 0 -44.5 -6.5t-29.5 -15.5t-16.5 -18t-8.5 -16l-2 -6
h-86q7 57 57.5 99t132.5 42q83 0 132.5 -50t49.5 -154v-173zM143 138q0 -50 54 -64q56 -15 111 18t57 95v52q-53 -5 -86 -10.5t-68 -16.5t-51.5 -29.5t-16.5 -44.5z" />
    <glyph glyph-name="uni01CF" unicode="&#x1cf;" horiz-adv-x="253" 
d="M279 909l-109 -154h-91l-109 154h89l59 -90h13l59 90h89zM80 0v700h93v-700h-93z" />
    <glyph glyph-name="uni01D0" unicode="&#x1d0;" horiz-adv-x="228" 
d="M166 556h-83l-99 154h81l53 -90h13l53 90h81zM80 0v500h88v-500h-88z" />
    <glyph glyph-name="uni01D1" unicode="&#x1d1;" horiz-adv-x="804" 
d="M447 755h-91l-109 154h89l59 -90h13l59 90h89zM402 705q140 0 241 -102t101 -253t-100.5 -253t-240.5 -102t-241.5 102t-101.5 253t101 253t241 102zM403 83q109 0 178 75.5t69 191.5t-69.5 191.5t-178.5 75.5q-108 0 -177.5 -75.5t-69.5 -191.5t69.5 -191.5t178.5 -75.5
z" />
    <glyph glyph-name="uni01D2" unicode="&#x1d2;" horiz-adv-x="600" 
d="M342 556h-83l-99 154h81l53 -90h13l53 90h81zM300 505q96 0 168 -73.5t72 -181.5q0 -109 -71.5 -182t-168.5 -73q-96 0 -168 73.5t-72 181.5t72 181.5t168 73.5zM300 77q67 0 109.5 49.5t42.5 123.5t-42.5 123.5t-109.5 49.5t-109.5 -49.5t-42.5 -123.5t42.5 -123.5
t109.5 -49.5z" />
    <glyph glyph-name="uni01D3" unicode="&#x1d3;" horiz-adv-x="704" 
d="M397 755h-91l-109 154h89l59 -90h13l59 90h89zM540 700h94v-400q0 -153 -78.5 -229t-202.5 -76t-203.5 76t-79.5 229v400h94v-390q0 -117 52 -172t137 -55t136 55t51 172v390z" />
    <glyph glyph-name="uni01D4" unicode="&#x1d4;" horiz-adv-x="579" 
d="M331 556h-83l-99 154h81l53 -90h13l53 90h81zM411 500h88v-500h-58l-16 53h-13q-51 -58 -140 -58q-94 0 -143 63t-49 171v271h88v-241q0 -188 121 -188q122 0 122 164v265z" />
    <glyph glyph-name="uni01E2" unicode="&#x1e2;" horiz-adv-x="1036" 
d="M873 857v-73h-330v73h330zM598 88h358v-88h-451v183h-265l-116 -183h-104l443 700h483v-87h-348v-215h318v-87h-318v-223zM294 268h211v312h-12z" />
    <glyph glyph-name="uni01E3" unicode="&#x1e3;" horiz-adv-x="891" 
d="M603 650v-70h-330v70h330zM603 505q98 0 166 -72.5t61 -205.5h-378q6 -70 47 -110.5t105 -40.5q84 0 123 64h92q-28 -67 -87 -106t-128 -39q-56 0 -106 26t-84 73q-22 -46 -69.5 -72.5t-107.5 -26.5q-77 0 -127 40.5t-50 107.5q0 159 306 162q0 118 -100 118
q-25 0 -44.5 -7.5t-30 -18t-17 -21t-8.5 -18.5l-2 -7h-81q9 69 56.5 111.5t127.5 42.5q113 0 155 -84q70 84 181 84zM602 431q-55 0 -94.5 -35.5t-51.5 -95.5h283q-9 59 -45.5 95t-91.5 36zM143 137q0 -49 54 -63q57 -15 111 18q53 31 57 89v50q-222 -4 -222 -94z" />
    <glyph glyph-name="Gcaron" unicode="&#x1e6;" horiz-adv-x="731" 
d="M423 755h-91l-109 154h89l59 -90h13l59 90h89zM374 280v82h287v-362h-55l-18 65h-13q-80 -70 -190 -70q-141 0 -233 100.5t-92 254.5q0 153 92 254t231 101q64 0 118 -23t86 -57.5t51 -67t23 -57.5h-98q-18 45 -66.5 83t-120.5 38q-100 0 -160.5 -76.5t-60.5 -194.5
t60.5 -194.5t164.5 -76.5q59 0 111.5 25.5t81.5 67.5v108h-199z" />
    <glyph glyph-name="gcaron" unicode="&#x1e7;" horiz-adv-x="563" 
d="M336 556h-83l-99 154h81l53 -90h13l53 90h81zM343 97q79 0 118 -38t39 -99q0 -80 -62 -122.5t-154 -42.5q-110 0 -168 57.5t-43 139.5l76 53q-67 24 -67 84q0 63 63 94q-42 47 -42 113q0 72 51.5 121t133.5 49q59 0 105 -27q22 10 40.5 25.5t26.5 25.5l7 10l51 -71
q-28 -20 -75 -36q30 -44 30 -97q0 -73 -51 -122t-134 -49q-48 0 -89 19q-32 -18 -32 -45q0 -42 105 -42h71zM289 434q-45 0 -73 -28.5t-28 -70.5t27.5 -70t72.5 -28q46 0 73 28t27 71q0 42 -27 70t-72 28zM284 -126q53 0 92 23.5t39 64.5q0 21 -10 34.5t-30 19t-34.5 7
t-36.5 2.5q-57 2 -84 5l-67 -63q-6 -41 34.5 -67t96.5 -26z" />
    <glyph glyph-name="uni01E8" unicode="&#x1e8;" horiz-adv-x="626" 
d="M354 755h-91l-109 154h89l59 -90h13l59 90h89zM586 0h-110l-248 317h-59v-317h-89v700h89v-297h59l219 297h109l-248 -340z" />
    <glyph glyph-name="uni01EA" unicode="&#x1ea;" horiz-adv-x="804" 
d="M442 -3q-43 -36 -43 -76q0 -38 34 -50.5t59 -1.5l3 -63q-23 -11 -54 -11q-44 0 -79 29.5t-35 79.5q0 54 41 93q-129 13 -218.5 112.5t-89.5 240.5q0 151 101 253t241 102t241 -102t101 -253q0 -140 -87.5 -239t-214.5 -114zM155 350q0 -116 69.5 -191.5t178.5 -75.5
t178 75.5t69 191.5t-69.5 191.5t-178.5 75.5q-108 0 -177.5 -75.5t-69.5 -191.5z" />
    <glyph glyph-name="uni01EB" unicode="&#x1eb;" horiz-adv-x="600" 
d="M347 0l-3 -2q-2 -1 -5 -3t-8 -5.5t-9.5 -8l-9.5 -9.5t-9.5 -11.5t-8 -13.5t-5.5 -15.5t-2 -17.5q0 -36 32 -48t56 -1l3 -60q-22 -11 -51 -11q-43 0 -76 28t-33 76q0 59 51 99q-87 12 -148 83t-61 170q0 108 72 181.5t168 73.5t168 -73.5t72 -181.5q0 -94 -55.5 -163
t-137.5 -87zM148 250q0 -74 42.5 -123.5t109.5 -49.5t109.5 49.5t42.5 123.5t-42.5 123.5t-109.5 49.5t-109.5 -49.5t-42.5 -123.5z" />
    <glyph glyph-name="uni01F4" unicode="&#x1f4;" horiz-adv-x="731" 
d="M514 880l-125 -125h-73l70 125h128zM374 280v82h287v-362h-55l-18 65h-13q-80 -70 -190 -70q-141 0 -233 100.5t-92 254.5q0 153 92 254t231 101q64 0 118 -23t86 -57.5t51 -67t23 -57.5h-98q-18 45 -66.5 83t-120.5 38q-100 0 -160.5 -76.5t-60.5 -194.5t60.5 -194.5
t164.5 -76.5q59 0 111.5 25.5t81.5 67.5v108h-199z" />
    <glyph glyph-name="uni01F5" unicode="&#x1f5;" horiz-adv-x="563" 
d="M420 680l-104 -125h-61l58 125h107zM343 97q79 0 118 -38t39 -99q0 -80 -62 -122.5t-154 -42.5q-110 0 -168 57.5t-43 139.5l76 53q-67 24 -67 84q0 63 63 94q-42 47 -42 113q0 72 51.5 121t133.5 49q59 0 105 -27q22 10 40.5 25.5t26.5 25.5l7 10l51 -71
q-28 -20 -75 -36q30 -44 30 -97q0 -73 -51 -122t-134 -49q-48 0 -89 19q-32 -18 -32 -45q0 -42 105 -42h71zM289 434q-45 0 -73 -28.5t-28 -70.5t27.5 -70t72.5 -28q46 0 73 28t27 71q0 42 -27 70t-72 28zM284 -126q53 0 92 23.5t39 64.5q0 21 -10 34.5t-30 19t-34.5 7
t-36.5 2.5q-57 2 -84 5l-67 -63q-6 -41 34.5 -67t96.5 -26z" />
    <glyph glyph-name="uni01F8" unicode="&#x1f8;" horiz-adv-x="712" 
d="M414 755h-73l-125 125h128zM544 700h88v-700h-125l-329 557h-11v-557h-87v700h112l340 -570h12v570z" />
    <glyph glyph-name="uni01F9" unicode="&#x1f9;" horiz-adv-x="576" 
d="M329 555h-61l-104 125h107zM315 505q93 0 141.5 -63t48.5 -171v-271h-88v241q0 38 -4 67.5t-15.5 59t-35.5 45.5t-59 16q-58 0 -96.5 -39.5t-38.5 -104.5v-285h-88v500h58l18 -57h12q54 62 147 62z" />
    <glyph glyph-name="AEacute" unicode="&#x1fc;" horiz-adv-x="1036" 
d="M837 880l-125 -125h-73l70 125h128zM598 88h358v-88h-451v183h-265l-116 -183h-104l443 700h483v-87h-348v-215h318v-87h-318v-223zM294 268h211v312h-12z" />
    <glyph glyph-name="aeacute" unicode="&#x1fd;" horiz-adv-x="891" 
d="M566 680l-104 -125h-61l58 125h107zM603 505q98 0 166 -72.5t61 -205.5h-378q6 -70 47 -110.5t105 -40.5q84 0 123 64h92q-28 -67 -87 -106t-128 -39q-56 0 -106 26t-84 73q-22 -46 -69.5 -72.5t-107.5 -26.5q-77 0 -127 40.5t-50 107.5q0 159 306 162q0 118 -100 118
q-25 0 -44.5 -7.5t-30 -18t-17 -21t-8.5 -18.5l-2 -7h-81q9 69 56.5 111.5t127.5 42.5q113 0 155 -84q70 84 181 84zM602 431q-55 0 -94.5 -35.5t-51.5 -95.5h283q-9 59 -45.5 95t-91.5 36zM143 137q0 -49 54 -63q57 -15 111 18q53 31 57 89v50q-222 -4 -222 -94z" />
    <glyph glyph-name="Scommaaccent" unicode="&#x218;" horiz-adv-x="613" 
d="M553 182q0 -86 -67.5 -136.5t-164.5 -50.5q-113 0 -187 65t-74 151h90q4 -57 55 -93.5t117 -36.5q54 0 96 25t42 75q0 44 -35.5 70.5t-118.5 59.5q-43 17 -63.5 26t-58 30t-56 40t-34 49.5t-15.5 65.5q0 81 66 132.5t160 51.5q101 0 164.5 -59.5t63.5 -131.5h-90
q-5 44 -42 74.5t-99 30.5q-57 0 -93.5 -26.5t-36.5 -65.5q0 -64 141 -121q7 -4 11 -5q33 -14 46 -19.5t43.5 -20t45 -25t36.5 -28.5t32 -35.5t18 -41t8 -50.5zM317 -58q28 0 42.5 -20.5t14.5 -54.5q0 -41 -21 -77.5t-41 -52.5l-21 -16l-25 27q36 31 46 85q-21 2 -36 17.5
t-15 37.5q0 23 16 38.5t40 15.5z" />
    <glyph glyph-name="scommaaccent" unicode="&#x219;" horiz-adv-x="503" 
d="M433 143q0 -68 -49 -108t-124 -40q-84 0 -137 48t-53 118h81q0 -44 32 -69t76 -25q38 0 64.5 18.5t26.5 53.5q0 34 -26 51t-78 31q-27 7 -43.5 12.5t-41.5 17.5t-39.5 26t-25.5 37t-11 52q0 65 46.5 102t118.5 37q79 0 126 -43t47 -99h-81q0 28 -26.5 49.5t-65.5 21.5
q-35 0 -58.5 -18.5t-23.5 -48.5q0 -31 25 -47t71 -28q30 -8 47.5 -13.5t44 -18t41 -26.5t25.5 -37.5t11 -53.5zM264 -45q26 0 40.5 -20t14.5 -52q0 -25 -8 -48t-19.5 -39t-23.5 -28t-20 -18l-8 -6l-25 25q35 31 45 81q-20 2 -34.5 17t-14.5 35q0 23 15 38t38 15z" />
    <glyph glyph-name="uni021A" unicode="&#x21a;" horiz-adv-x="532" 
d="M502 700v-87h-189v-613h-94v613h-189v87h472zM264 -48q28 0 42.5 -20.5t14.5 -54.5q0 -26 -8.5 -50.5t-20.5 -41t-24.5 -29.5t-21.5 -19l-8 -6l-25 27q36 31 46 85q-21 2 -36 17.5t-15 37.5q0 23 16 38.5t40 15.5z" />
    <glyph glyph-name="uni021B" unicode="&#x21b;" horiz-adv-x="435" 
d="M337 88l38 -61q-37 -32 -88 -32q-64 0 -102 43.5t-38 112.5v275h-87v65h31q29 0 48 19t19 50v90h74v-150h121v-73h-120v-268q0 -85 64 -85q22 0 40 14zM263 -45q26 0 40.5 -20t14.5 -52q0 -39 -20 -74t-40 -50l-19 -15l-25 25q35 31 45 81q-20 2 -34.5 17t-14.5 35
q0 23 15 38t38 15z" />
    <glyph glyph-name="uni021E" unicode="&#x21e;" horiz-adv-x="680" 
d="M385 755h-91l-109 154h89l59 -90h13l59 90h89zM507 700h93v-700h-93v310h-334v-310h-93v700h93v-303h334v303z" />
    <glyph glyph-name="uni0226" unicode="&#x226;" horiz-adv-x="638" 
d="M320 746q-27 0 -46 19t-19 45q0 27 19 45.5t46 18.5q26 0 45 -18.5t19 -45.5q0 -26 -19 -45t-45 -19zM521 0l-59 183h-286l-59 -183h-97l236 700h126l236 -700h-97zM313 606l-109 -338h230l-109 338h-12z" />
    <glyph glyph-name="uni0228" unicode="&#x228;" horiz-adv-x="611" 
d="M531 0h-199l-22 -32q39 9 73.5 -13.5t34.5 -65.5q0 -40 -31.5 -67t-80.5 -27q-23 0 -43 6.5t-32 16t-20.5 19t-12.5 15.5l-3 7l50 28q19 -32 60 -32q22 0 33.5 9.5t11.5 24.5q0 14 -11.5 24t-33.5 10q-11 0 -22 -2.5t-17 -5.5l-5 -3l-29 38l32 50h-184v700h441v-87h-348
v-215h318v-87h-318v-223h358v-88z" />
    <glyph glyph-name="uni0229" unicode="&#x229;" horiz-adv-x="585" 
d="M297 505q98 0 166 -72.5t61 -205.5h-378q6 -70 47 -110.5t105 -40.5q84 0 123 64h92q-24 -58 -71 -95t-106 -47l-25 -38q37 8 69.5 -13t32.5 -62q0 -38 -29.5 -64t-76.5 -26q-35 0 -61.5 15.5t-35.5 30.5l-9 15l48 27q18 -31 57 -31q21 0 32 9.5t11 23.5q0 13 -11 22.5
t-32 9.5q-11 0 -21.5 -2.5t-15.5 -4.5l-5 -3l-28 36l35 54q-89 10 -150 80.5t-61 176.5q0 112 69.5 181.5t167.5 69.5zM296 431q-55 0 -94.5 -35.5t-51.5 -95.5h283q-9 59 -45.5 95t-91.5 36z" />
    <glyph glyph-name="uni022E" unicode="&#x22e;" horiz-adv-x="804" 
d="M403 746q-27 0 -46 19t-19 45q0 27 19 45.5t46 18.5q26 0 45 -18.5t19 -45.5q0 -26 -19 -45t-45 -19zM403 -5q-140 0 -241.5 102t-101.5 253t101 253t241 102t241 -102t101 -253t-100.5 -253t-240.5 -102zM403 83q109 0 178 75.5t69 191.5t-69.5 191.5t-178.5 75.5
q-108 0 -177.5 -75.5t-69.5 -191.5t69.5 -191.5t178.5 -75.5z" />
    <glyph glyph-name="uni022F" unicode="&#x22f;" horiz-adv-x="600" 
d="M301 577q-27 0 -46 19t-19 45q0 27 19 45.5t46 18.5q26 0 45 -18.5t19 -45.5q0 -26 -19 -45t-45 -19zM300 -5q-96 0 -168 73.5t-72 181.5t72 181.5t168 73.5t168 -73.5t72 -181.5q0 -109 -71.5 -182t-168.5 -73zM300 77q67 0 109.5 49.5t42.5 123.5t-42.5 123.5
t-109.5 49.5t-109.5 -49.5t-42.5 -123.5t42.5 -123.5t109.5 -49.5z" />
    <glyph glyph-name="uni0233" unicode="&#x233;" horiz-adv-x="590" 
d="M458 650v-70h-330v70h330zM450 500h90l-184 -519q-29 -87 -52 -120q-46 -66 -126 -66q-34 0 -63 10t-40 24l39 61q27 -19 60 -19q19 0 32.5 6t23.5 22t14.5 26t13.5 34l15 41h-41l-182 500h91l151 -414h11z" />
    <glyph glyph-name="uni0237" unicode="&#x237;" horiz-adv-x="338" 
d="M171 500h87v-549q0 -69 -38 -112.5t-102 -43.5q-51 0 -88 32l38 61q18 -14 40 -14q63 0 63 85v541z" />
    <glyph glyph-name="circumflex" unicode="&#x2c6;" horiz-adv-x="441" 
d="M280 556l-53 90h-13l-53 -90h-81l99 154h83l99 -154h-81z" />
    <glyph glyph-name="caron" unicode="&#x2c7;" horiz-adv-x="441" 
d="M280 710h81l-99 -154h-83l-99 154h81l53 -90h13z" />
    <glyph glyph-name="breve" unicode="&#x2d8;" horiz-adv-x="421" 
d="M341 700q0 -48 -36 -87.5t-93 -39.5t-94.5 39.5t-37.5 87.5h72q0 -19 16 -38t43 -19t42 18.5t15 38.5h73z" />
    <glyph glyph-name="dotaccent" unicode="&#x2d9;" horiz-adv-x="289" 
d="M145 577q-27 0 -46 19t-19 45q0 27 19 45.5t46 18.5q26 0 45 -18.5t19 -45.5q0 -26 -19 -45t-45 -19z" />
    <glyph glyph-name="ring" unicode="&#x2da;" horiz-adv-x="352" 
d="M176 535q-40 0 -68 28t-28 67t28 67t68 28q39 0 67.5 -28t28.5 -67t-28.5 -67t-67.5 -28zM176 591q16 0 27 11.5t11 27.5t-11 27.5t-27 11.5t-27 -11.5t-11 -27.5t11 -27.5t27 -11.5z" />
    <glyph glyph-name="ogonek" unicode="&#x2db;" horiz-adv-x="320" 
d="M159 15l50 -15q-7 -4 -17 -10.5t-26.5 -29t-16.5 -46.5q0 -36 32 -48t56 -1l3 -60q-22 -11 -51 -11q-43 0 -76 28t-33 76q0 36 20 65t40 41z" />
    <glyph glyph-name="tilde" unicode="&#x2dc;" horiz-adv-x="490" 
d="M410 635q-2 -4 -5 -11t-14 -23.5t-24.5 -28t-35.5 -19t-46 -2.5q-22 4 -52.5 22.5t-45.5 20.5q-17 2 -30.5 -7t-18.5 -19l-5 -9l-53 23q2 4 5 10.5t14.5 23t25 28.5t35 19.5t45.5 3.5q22 -4 52 -22.5t45 -20.5q17 -2 30.5 6.5t19.5 18.5l5 10z" />
    <glyph glyph-name="hungarumlaut" unicode="&#x2dd;" horiz-adv-x="451" 
d="M148 680h93l-94 -125h-67zM278 680h93l-94 -125h-67z" />
    <glyph glyph-name="uni0326" unicode="&#x326;" horiz-adv-x="0" 
d="M-135 -45q26 0 40.5 -20t14.5 -52q0 -39 -20 -74t-40 -50l-19 -15l-25 25q35 31 45 81q-20 2 -34.5 17t-14.5 35q0 23 15 38t38 15z" />
    <glyph glyph-name="uni1E02" unicode="&#x1e02;" horiz-adv-x="614" 
d="M280 746q-27 0 -46 19t-19 45q0 27 19 45.5t46 18.5q26 0 45 -18.5t19 -45.5q0 -26 -19 -45t-45 -19zM437 364q50 -18 83.5 -63t33.5 -108q0 -83 -60.5 -138t-171.5 -55h-242v700h221q96 0 158 -48t62 -129q0 -50 -23.5 -89t-60.5 -58v-12zM165 618v-215h131
q68 0 101.5 29.5t33.5 79.5q0 106 -140 106h-126zM312 82q151 0 151 120q0 61 -40 91t-111 30h-147v-241h147z" />
    <glyph glyph-name="uni1E03" unicode="&#x1e03;" horiz-adv-x="607" 
d="M314 746q-27 0 -46 19t-19 45q0 27 19 45.5t46 18.5q26 0 45 -18.5t19 -45.5q0 -26 -19 -45t-45 -19zM316 505q97 0 164 -72t67 -183t-67 -183t-164 -72q-92 0 -145 69h-14l-19 -64h-58v710h85v-283q53 78 151 78zM309 77q60 0 105 48t45 125t-45 125t-105 48
q-57 0 -100.5 -44t-43.5 -129t43.5 -129t100.5 -44z" />
    <glyph glyph-name="uni1E0A" unicode="&#x1e0a;" horiz-adv-x="687" 
d="M321 746q-27 0 -46 19t-19 45q0 27 19 45.5t46 18.5q26 0 45 -18.5t19 -45.5q0 -26 -19 -45t-45 -19zM302 700q139 0 232 -98t93 -252t-92.5 -252t-232.5 -98h-222v700h222zM302 88q108 0 168 72t60 190t-60.5 190t-167.5 72h-129v-524h129z" />
    <glyph glyph-name="uni1E0B" unicode="&#x1e0b;" horiz-adv-x="609" 
d="M291 746q-27 0 -46 19t-19 45q0 27 19 45.5t46 18.5q26 0 45 -18.5t19 -45.5q0 -26 -19 -45t-45 -19zM442 710h85v-710h-58l-19 64h-16q-52 -69 -143 -69q-96 0 -163.5 72.5t-67.5 182.5t67.5 182.5t163.5 72.5q97 0 151 -80v285zM148 250q0 -77 45 -125t105 -48
q57 0 100.5 44t43.5 129t-43.5 129t-100.5 44q-60 0 -105 -48t-45 -125z" />
    <glyph glyph-name="uni1E10" unicode="&#x1e10;" horiz-adv-x="687" 
d="M627 350q0 -140 -78 -235t-200 -112l-24 -35q39 9 73.5 -13.5t34.5 -65.5q0 -40 -31.5 -67t-80.5 -27q-23 0 -43 6.5t-32 16t-20.5 19t-11.5 15.5l-4 7l50 28q19 -32 60 -32q22 0 33.5 9.5t11.5 24.5q0 14 -11.5 24t-33.5 10q-11 0 -22 -2.5t-16 -5.5l-6 -3l-29 38l32 50
h-199v700h222q139 0 232 -98t93 -252zM173 612v-524h129q108 0 168 72t60 190t-60.5 190t-167.5 72h-129z" />
    <glyph glyph-name="uni1E11" unicode="&#x1e11;" horiz-adv-x="609" 
d="M442 710h85v-710h-58l-19 64h-16q-37 -50 -97 -64l-27 -40q37 8 69.5 -13t32.5 -62q0 -38 -29.5 -64t-76.5 -26q-35 0 -61.5 15.5t-35.5 30.5l-9 15l48 27q18 -31 57 -31q21 0 32 9.5t11 23.5q0 13 -11 22.5t-32 9.5q-11 0 -21.5 -2.5t-15.5 -4.5l-5 -3l-28 36l34 53
q-89 9 -149 80t-60 174q0 110 67.5 182.5t163.5 72.5q97 0 151 -80v285zM148 250q0 -77 45 -125t105 -48q57 0 100.5 44t43.5 129t-43.5 129t-100.5 44q-60 0 -105 -48t-45 -125z" />
    <glyph glyph-name="uni1E1E" unicode="&#x1e1e;" horiz-adv-x="531" 
d="M291 746q-27 0 -46 19t-19 45q0 27 19 45.5t46 18.5q26 0 45 -18.5t19 -45.5q0 -26 -19 -45t-45 -19zM501 615h-329v-218h279v-85h-279v-312h-92v700h421v-85z" />
    <glyph glyph-name="uni1E1F" unicode="&#x1e1f;" horiz-adv-x="395" 
d="M232 746q-27 0 -46 19t-19 45q0 27 19 45.5t46 18.5q26 0 45 -18.5t19 -45.5q0 -26 -19 -45t-45 -19zM308 611q-17 14 -40 14q-60 0 -60 -84v-41h120v-70h-120v-430h-84v430h-74v70h74v49q0 70 35 113t99 43q51 0 88 -32z" />
    <glyph glyph-name="uni1E20" unicode="&#x1e20;" horiz-adv-x="731" 
d="M543 857v-73h-330v73h330zM374 280v82h287v-362h-55l-18 65h-13q-80 -70 -190 -70q-141 0 -233 100.5t-92 254.5q0 153 92 254t231 101q64 0 118 -23t86 -57.5t51 -67t23 -57.5h-98q-18 45 -66.5 83t-120.5 38q-100 0 -160.5 -76.5t-60.5 -194.5t60.5 -194.5t164.5 -76.5
q59 0 111.5 25.5t81.5 67.5v108h-199z" />
    <glyph glyph-name="uni1E22" unicode="&#x1e22;" horiz-adv-x="680" 
d="M341 746q-27 0 -46 19t-19 45q0 27 19 45.5t46 18.5q26 0 45 -18.5t19 -45.5q0 -26 -19 -45t-45 -19zM507 700h93v-700h-93v310h-334v-310h-93v700h93v-303h334v303z" />
    <glyph glyph-name="uni1E23" unicode="&#x1e23;" horiz-adv-x="580" 
d="M294 746q-27 0 -46 19t-19 45q0 27 19 45.5t46 18.5q26 0 45 -18.5t19 -45.5q0 -26 -19 -45t-45 -19zM317 505q91 0 139.5 -63.5t48.5 -170.5v-271h-88v241q0 38 -4 67.5t-15.5 59t-35.5 45.5t-59 16q-58 0 -96.5 -39.5t-38.5 -104.5v-285h-88v710h88v-263h10
q51 58 139 58z" />
    <glyph glyph-name="uni1E26" unicode="&#x1e26;" horiz-adv-x="680" 
d="M240 749q-26 0 -44 18.5t-18 43.5q0 26 18 43.5t44 17.5t43.5 -17.5t17.5 -43.5t-18 -44t-43 -18zM480 749q-26 0 -44 18.5t-18 43.5q0 26 18 43.5t44 17.5t43.5 -17.5t17.5 -43.5t-18 -44t-43 -18zM507 700h93v-700h-93v310h-334v-310h-93v700h93v-303h334v303z" />
    <glyph glyph-name="uni1E27" unicode="&#x1e27;" horiz-adv-x="580" 
d="M208 760q-22 0 -38.5 16t-16.5 39t16 39t39 16t39 -16t16 -39t-16.5 -39t-38.5 -16zM378 760q-22 0 -38.5 16t-16.5 39t16 39t39 16t39 -16t16 -39t-16.5 -39t-38.5 -16zM317 505q91 0 139.5 -63.5t48.5 -170.5v-271h-88v241q0 38 -4 67.5t-15.5 59t-35.5 45.5t-59 16
q-58 0 -96.5 -39.5t-38.5 -104.5v-285h-88v710h88v-263h10q51 58 139 58z" />
    <glyph glyph-name="uni1E28" unicode="&#x1e28;" horiz-adv-x="680" 
d="M507 700h93v-700h-93v310h-334v-310h-26l-22 -32q39 9 73.5 -13.5t34.5 -65.5q0 -40 -31.5 -67t-80.5 -27q-23 0 -43 6.5t-32 16t-20.5 19t-11.5 15.5l-4 7l50 28q19 -32 60 -32q22 0 33.5 9.5t11.5 24.5q0 14 -11.5 24t-33.5 10q-11 0 -22 -2.5t-16 -5.5l-6 -3l-29 38
l33 51v699h93v-303h334v303z" />
    <glyph glyph-name="uni1E29" unicode="&#x1e29;" horiz-adv-x="580" 
d="M317 505q91 0 139.5 -63.5t48.5 -170.5v-271h-88v241q0 38 -4 67.5t-15.5 59t-35.5 45.5t-59 16q-58 0 -96.5 -39.5t-38.5 -104.5v-285h-23l-27 -40q37 8 69.5 -13t32.5 -62q0 -38 -29.5 -64t-76.5 -26q-35 0 -61.5 15.5t-35.5 30.5l-9 15l48 27q18 -31 57 -31
q21 0 32 9.5t11 23.5q0 13 -11 22.5t-32 9.5q-11 0 -21.5 -2.5t-15.5 -4.5l-5 -3l-28 36l37 57v710h88v-263h10q51 58 139 58z" />
    <glyph glyph-name="uni1E40" unicode="&#x1e40;" horiz-adv-x="840" 
d="M421 746q-27 0 -46 19t-19 45q0 27 19 45.5t46 18.5q26 0 45 -18.5t19 -45.5q0 -26 -19 -45t-45 -19zM624 700h136v-700h-87v567h-11l-187 -517h-111l-186 517h-11v-567h-87v700h136l198 -549h12z" />
    <glyph glyph-name="uni1E41" unicode="&#x1e41;" horiz-adv-x="853" 
d="M432 577q-27 0 -46 19t-19 45q0 27 19 45.5t46 18.5q26 0 45 -18.5t19 -45.5q0 -26 -19 -45t-45 -19zM607 505q84 0 129.5 -64t45.5 -170v-271h-88v241q0 41 -3.5 71t-13 58.5t-30 43.5t-51.5 15q-49 0 -84 -36.5t-37 -100.5v-292h-88v241q0 41 -3.5 71t-13 58.5
t-30 43.5t-51.5 15q-51 0 -86 -39t-35 -105v-285h-88v500h58l17 -56h14q53 61 128 61q83 0 140 -80h17q58 80 153 80z" />
    <glyph glyph-name="uni1E44" unicode="&#x1e44;" horiz-adv-x="712" 
d="M357 746q-27 0 -46 19t-19 45q0 27 19 45.5t46 18.5q26 0 45 -18.5t19 -45.5q0 -26 -19 -45t-45 -19zM544 700h88v-700h-125l-329 557h-11v-557h-87v700h112l340 -570h12v570z" />
    <glyph glyph-name="uni1E45" unicode="&#x1e45;" horiz-adv-x="576" 
d="M294 577q-27 0 -46 19t-19 45q0 27 19 45.5t46 18.5q26 0 45 -18.5t19 -45.5q0 -26 -19 -45t-45 -19zM315 505q93 0 141.5 -63t48.5 -171v-271h-88v241q0 38 -4 67.5t-15.5 59t-35.5 45.5t-59 16q-58 0 -96.5 -39.5t-38.5 -104.5v-285h-88v500h58l18 -57h12q54 62 147 62
z" />
    <glyph glyph-name="uni1E56" unicode="&#x1e56;" horiz-adv-x="594" 
d="M295 746q-27 0 -46 19t-19 45q0 27 19 45.5t46 18.5q26 0 45 -18.5t19 -45.5q0 -26 -19 -45t-45 -19zM322 700q92 0 157 -55t65 -150q0 -96 -66 -155.5t-156 -59.5h-157v-280h-85v700h242zM312 362q58 0 101 34t43 99q0 64 -42 93.5t-102 29.5h-147v-256h147z" />
    <glyph glyph-name="uni1E57" unicode="&#x1e57;" horiz-adv-x="607" 
d="M314 577q-27 0 -46 19t-19 45q0 27 19 45.5t46 18.5q26 0 45 -18.5t19 -45.5q0 -26 -19 -45t-45 -19zM316 505q96 0 163.5 -72.5t67.5 -182.5t-67.5 -182.5t-163.5 -72.5q-97 0 -151 80v-275h-85v700h58l19 -63h16q53 68 143 68zM309 77q60 0 105 48t45 125t-45 125
t-105 48q-57 0 -100.5 -44t-43.5 -129t43.5 -129t100.5 -44z" />
    <glyph glyph-name="uni1E58" unicode="&#x1e58;" horiz-adv-x="637" 
d="M301 746q-27 0 -46 19t-19 45q0 27 19 45.5t46 18.5q26 0 45 -18.5t19 -45.5q0 -26 -19 -45t-45 -19zM577 0h-101l-185 280h-126v-280h-85v700h242q92 0 157 -55t65 -150q0 -77 -44 -131.5t-112 -74.5zM165 618v-256h147q58 0 101 34t43 99q0 64 -42 93.5t-102 29.5h-147
z" />
    <glyph glyph-name="uni1E59" unicode="&#x1e59;" horiz-adv-x="386" 
d="M205 577q-27 0 -46 19t-19 45q0 27 19 45.5t46 18.5q26 0 45 -18.5t19 -45.5q0 -26 -19 -45t-45 -19zM305 505h31v-86q-20 4 -41 4q-53 0 -90 -32t-37 -96v-295h-88v500h58l17 -56h14q53 61 136 61z" />
    <glyph glyph-name="uni1E60" unicode="&#x1e60;" horiz-adv-x="613" 
d="M306 746q-27 0 -46 19t-19 45q0 27 19 45.5t46 18.5q26 0 45 -18.5t19 -45.5q0 -26 -19 -45t-45 -19zM553 182q0 -86 -67.5 -136.5t-164.5 -50.5q-113 0 -187 65t-74 151h90q4 -57 55 -93.5t117 -36.5q54 0 96 25t42 75q0 44 -35.5 70.5t-118.5 59.5q-43 17 -63.5 26
t-58 30t-56 40t-34 49.5t-15.5 65.5q0 81 66 132.5t160 51.5q101 0 164.5 -59.5t63.5 -131.5h-90q-5 44 -42 74.5t-99 30.5q-57 0 -93.5 -26.5t-36.5 -65.5q0 -64 141 -121q7 -4 11 -5q33 -14 46 -19.5t43.5 -20t45 -25t36.5 -28.5t32 -35.5t18 -41t8 -50.5z" />
    <glyph glyph-name="uni1E61" unicode="&#x1e61;" horiz-adv-x="503" 
d="M246 577q-27 0 -46 19t-19 45q0 27 19 45.5t46 18.5q26 0 45 -18.5t19 -45.5q0 -26 -19 -45t-45 -19zM433 143q0 -68 -49 -108t-124 -40q-84 0 -137 48t-53 118h81q0 -44 32 -69t76 -25q38 0 64.5 18.5t26.5 53.5q0 34 -26 51t-78 31q-27 7 -43.5 12.5t-41.5 17.5
t-39.5 26t-25.5 37t-11 52q0 65 46.5 102t118.5 37q79 0 126 -43t47 -99h-81q0 28 -26.5 49.5t-65.5 21.5q-35 0 -58.5 -18.5t-23.5 -48.5q0 -31 25 -47t71 -28q30 -8 47.5 -13.5t44 -18t41 -26.5t25.5 -37.5t11 -53.5z" />
    <glyph glyph-name="uni1E7C" unicode="&#x1e7c;" horiz-adv-x="678" 
d="M275 791q-19 2 -34 -7.5t-21 -19.5l-5 -11l-58 25q2 4 5.5 11.5t16.5 25.5t27.5 31t38.5 21.5t50 4.5q24 -5 57 -25.5t49 -22.5q19 -2 34 7.5t21 20.5l6 11l58 -26q-2 -5 -5.5 -12t-15.5 -25.5t-26.5 -31.5t-38.5 -21t-51 -3q-25 5 -58.5 25t-49.5 22zM541 700h97
l-224 -700h-150l-224 700h98l194 -613h14z" />
    <glyph glyph-name="uni1E7D" unicode="&#x1e7d;" horiz-adv-x="576" 
d="M230 594q-17 2 -30.5 -7t-18.5 -19l-5 -9l-53 23q2 4 5 10.5t14.5 23t25 28.5t35 19.5t45.5 3.5q22 -4 52 -22.5t45 -20.5q17 -2 30.5 6.5t18.5 18.5l6 10l53 -24q-2 -4 -5 -11t-14 -23.5t-24.5 -28t-35.5 -19t-46 -2.5q-22 4 -52.5 22.5t-45.5 20.5zM424 500h92
l-162 -500h-132l-162 500h92l130 -428h12z" />
    <glyph glyph-name="Wgrave" unicode="&#x1e80;" horiz-adv-x="952" 
d="M535 755h-73l-125 125h128zM812 700h95l-172 -700h-136l-117 527h-12l-117 -527h-136l-172 700h95l141 -597h12l121 547h124l121 -547h12z" />
    <glyph glyph-name="wgrave" unicode="&#x1e81;" horiz-adv-x="792" 
d="M456 555h-61l-104 125h107zM645 500h87l-119 -500h-132l-79 340h-12l-79 -340h-132l-119 500h87l93 -421h12l89 381h110l90 -381h11z" />
    <glyph glyph-name="Wacute" unicode="&#x1e82;" horiz-adv-x="952" 
d="M602 880l-125 -125h-73l70 125h128zM812 700h95l-172 -700h-136l-117 527h-12l-117 -527h-136l-172 700h95l141 -597h12l121 547h124l121 -547h12z" />
    <glyph glyph-name="wacute" unicode="&#x1e83;" horiz-adv-x="792" 
d="M534 680l-104 -125h-61l58 125h107zM645 500h87l-119 -500h-132l-79 340h-12l-79 -340h-132l-119 500h87l93 -421h12l89 381h110l90 -381h11z" />
    <glyph glyph-name="Wdieresis" unicode="&#x1e84;" horiz-adv-x="952" 
d="M349 749q-25 0 -43.5 18.5t-18.5 43.5q0 26 18 43.5t44 17.5t43.5 -17.5t17.5 -43.5t-18 -44t-43 -18zM589 749q-25 0 -43.5 18.5t-18.5 43.5q0 26 18 43.5t44 17.5t43.5 -17.5t17.5 -43.5t-18 -44t-43 -18zM812 700h95l-172 -700h-136l-117 527h-12l-117 -527h-136
l-172 700h95l141 -597h12l121 547h124l121 -547h12z" />
    <glyph glyph-name="wdieresis" unicode="&#x1e85;" horiz-adv-x="792" 
d="M321 551q-23 0 -39 16.5t-16 38.5q0 23 16 39t39 16t39 -16t16 -39q0 -22 -16 -38.5t-39 -16.5zM491 551q-23 0 -39 16.5t-16 38.5q0 23 16 39t39 16t39 -16t16 -39q0 -22 -16 -38.5t-39 -16.5zM645 500h87l-119 -500h-132l-79 340h-12l-79 -340h-132l-119 500h87
l93 -421h12l89 381h110l90 -381h11z" />
    <glyph glyph-name="uni1E8C" unicode="&#x1e8c;" horiz-adv-x="661" 
d="M210 749q-26 0 -44 18.5t-18 43.5q0 26 18 43.5t44 17.5t43.5 -17.5t17.5 -43.5t-18 -44t-43 -18zM450 749q-26 0 -44 18.5t-18 43.5q0 26 18 43.5t44 17.5t43.5 -17.5t17.5 -43.5t-18 -44t-43 -18zM512 0l-173 273h-16l-174 -273h-109l234 361l-220 339h105l163 -253h16
l163 253h106l-220 -339l234 -361h-109z" />
    <glyph glyph-name="uni1E8D" unicode="&#x1e8d;" horiz-adv-x="587" 
d="M209 551q-23 0 -39 16.5t-16 38.5q0 23 16 39t39 16t39 -16t16 -39q0 -22 -16 -38.5t-39 -16.5zM379 551q-23 0 -39 16.5t-16 38.5q0 23 16 39t39 16t39 -16t16 -39q0 -22 -16 -38.5t-39 -16.5zM420 0l-119 189h-14l-120 -189h-103l170 260l-155 240h100l109 -170h12
l108 170h100l-155 -240l170 -260h-103z" />
    <glyph glyph-name="uni1E90" unicode="&#x1e90;" horiz-adv-x="601" 
d="M294 845l-59 -90h-89l109 154h91l109 -154h-89l-59 90h-13zM189 88h352v-88h-481v52l347 561h-327v87h451v-51z" />
    <glyph glyph-name="uni1E97" unicode="&#x1e97;" horiz-adv-x="435" 
d="M108 690q-22 0 -38.5 16t-16.5 39t16 39t39 16t39 -16t16 -39t-16.5 -39t-38.5 -16zM278 690q-22 0 -38.5 16t-16.5 39t16 39t39 16t39 -16t16 -39t-16.5 -39t-38.5 -16zM337 88l38 -61q-37 -32 -88 -32q-64 0 -102 43.5t-38 112.5v275h-87v65h31q29 0 48 19t19 50v90h74
v-150h121v-73h-120v-268q0 -85 64 -85q22 0 40 14z" />
    <glyph glyph-name="uni1E98" unicode="&#x1e98;" horiz-adv-x="792" 
d="M406 535q-40 0 -68 28t-28 67t28 67t68 28q39 0 67.5 -28t28.5 -67t-28.5 -67t-67.5 -28zM406 669q-16 0 -27 -11.5t-11 -27.5t11 -27.5t27 -11.5t27 11.5t11 27.5t-11 27.5t-27 11.5zM645 500h87l-119 -500h-132l-79 340h-12l-79 -340h-132l-119 500h87l93 -421h12
l89 381h110l90 -381h11z" />
    <glyph glyph-name="uni1E99" unicode="&#x1e99;" horiz-adv-x="590" 
d="M290 535q-40 0 -68 28t-28 67t28 67t68 28q39 0 67.5 -28t28.5 -67t-28.5 -67t-67.5 -28zM290 669q-16 0 -27 -11.5t-11 -27.5t11 -27.5t27 -11.5t27 11.5t11 27.5t-11 27.5t-27 11.5zM450 500h90l-184 -519q-29 -87 -52 -120q-46 -66 -126 -66q-34 0 -63 10t-40 24
l39 61q27 -19 60 -19q19 0 32.5 6t23.5 22t14.5 26t13.5 34l15 41h-41l-182 500h91l151 -414h11z" />
    <glyph glyph-name="uni1E9E" unicode="&#x1e9e;" horiz-adv-x="1226" 
d="M553 182q0 -86 -67.5 -136.5t-164.5 -50.5q-113 0 -187 65t-74 151h90q4 -57 55 -93.5t117 -36.5q54 0 96 25t42 75q0 44 -35.5 70.5t-118.5 59.5q-43 17 -63.5 26t-58 30t-56 40t-34 49.5t-15.5 65.5q0 81 66 132.5t160 51.5q101 0 164.5 -59.5t63.5 -131.5h-90
q-5 44 -42 74.5t-99 30.5q-57 0 -93.5 -26.5t-36.5 -65.5q0 -64 141 -121q7 -4 11 -5q33 -14 46 -19.5t43.5 -20t45 -25t36.5 -28.5t32 -35.5t18 -41t8 -50.5zM1166 182q0 -86 -67.5 -136.5t-164.5 -50.5q-113 0 -187 65t-74 151h90q4 -57 55 -93.5t117 -36.5q54 0 96 25
t42 75q0 44 -35.5 70.5t-118.5 59.5q-43 17 -63.5 26t-58 30t-56 40t-34 49.5t-15.5 65.5q0 81 66 132.5t160 51.5q101 0 164.5 -59.5t63.5 -131.5h-90q-5 44 -42 74.5t-99 30.5q-57 0 -93.5 -26.5t-36.5 -65.5q0 -64 141 -121q7 -4 11 -5q33 -14 46 -19.5t43.5 -20t45 -25
t36.5 -28.5t32 -35.5t18 -41t8 -50.5z" />
    <glyph glyph-name="uni1EBC" unicode="&#x1ebc;" horiz-adv-x="611" 
d="M487 837q-2 -5 -5.5 -12t-15.5 -25.5t-26.5 -31.5t-38.5 -21t-51 -3q-25 5 -58.5 25t-49.5 22q-19 2 -34 -7.5t-20 -19.5l-6 -11l-58 25q2 4 5.5 11.5t16.5 25.5t27.5 31t38.5 21.5t50 4.5q24 -5 57 -25.5t49 -22.5q19 -2 34 7.5t21 20.5l6 11zM173 88h358v-88h-451v700
h441v-87h-348v-215h318v-87h-318v-223z" />
    <glyph glyph-name="uni1EBD" unicode="&#x1ebd;" horiz-adv-x="585" 
d="M234 594q-17 2 -30.5 -7t-18.5 -19l-5 -9l-53 23q2 4 5 10.5t14.5 23t25 28.5t35 19.5t45.5 3.5q22 -4 52 -22.5t45 -20.5q17 -2 30.5 6.5t18.5 18.5l6 10l53 -24q-2 -4 -5 -11t-14 -23.5t-24.5 -28t-35.5 -19t-46 -2.5q-22 4 -52.5 22.5t-45.5 20.5zM297 505
q98 0 166 -72.5t61 -205.5h-378q6 -70 47 -110.5t105 -40.5q84 0 123 64h92q-28 -67 -87 -106t-128 -39q-98 0 -168 72.5t-70 186.5q0 112 69.5 181.5t167.5 69.5zM296 431q-55 0 -94.5 -35.5t-51.5 -95.5h283q-9 59 -45.5 95t-91.5 36z" />
    <glyph glyph-name="Ygrave" unicode="&#x1ef2;" horiz-adv-x="653" 
d="M371 755h-73l-125 125h128zM503 700h110l-240 -349v-351h-93v351l-240 349h111l169 -254h14z" />
    <glyph glyph-name="ygrave" unicode="&#x1ef3;" horiz-adv-x="590" 
d="M341 555h-61l-104 125h107zM450 500h90l-184 -519q-29 -87 -52 -120q-46 -66 -126 -66q-34 0 -63 10t-40 24l39 61q27 -19 60 -19q19 0 32.5 6t23.5 22t14.5 26t13.5 34l15 41h-41l-182 500h91l151 -414h11z" />
    <glyph glyph-name="uni1EF8" unicode="&#x1ef8;" horiz-adv-x="653" 
d="M263 791q-19 2 -34 -7.5t-21 -19.5l-5 -11l-58 25q2 4 5.5 11.5t16.5 25.5t27.5 31t38.5 21.5t50 4.5q24 -5 57 -25.5t49 -22.5q19 -2 34 7.5t21 20.5l6 11l58 -26q-2 -5 -5.5 -12t-15.5 -25.5t-26.5 -31.5t-38.5 -21t-51 -3q-25 5 -58.5 25t-49.5 22zM502 700h111
l-240 -349v-351h-93v351l-240 349h110l169 -254h14z" />
    <glyph glyph-name="uni1EF9" unicode="&#x1ef9;" horiz-adv-x="590" 
d="M236 594q-17 2 -30.5 -7t-18.5 -19l-5 -9l-53 23q2 4 5 10.5t14.5 23t25 28.5t35 19.5t45.5 3.5q22 -4 52 -22.5t45 -20.5q17 -2 30.5 6.5t18.5 18.5l6 10l53 -24q-2 -4 -5 -11t-14 -23.5t-24.5 -28t-35.5 -19t-46 -2.5q-22 4 -52.5 22.5t-45.5 20.5zM450 500h90
l-184 -519q-29 -87 -52 -120q-46 -66 -126 -66q-34 0 -63 10t-40 24l39 61q27 -19 60 -19q19 0 32.5 6t23.5 22t14.5 26t13.5 34l15 41h-41l-182 500h91l151 -414h11z" />
    <glyph glyph-name="uni200B" unicode="&#x200b;" horiz-adv-x="0" 
 />
    <glyph glyph-name="endash" unicode="&#x2013;" horiz-adv-x="555" 
d="M60 349h435v-76h-435v76z" />
    <glyph glyph-name="emdash" unicode="&#x2014;" horiz-adv-x="880" 
d="M820 349v-76h-760v76h760z" />
    <glyph glyph-name="quoteleft" unicode="&#x2018;" horiz-adv-x="231" 
d="M117 501q-27 0 -42 20.5t-15 55.5q0 26 8.5 50.5t20 41t23.5 29.5t20 19l9 6l25 -27q-35 -31 -45 -85q21 -2 35.5 -17.5t14.5 -37.5q0 -24 -15.5 -39.5t-38.5 -15.5z" />
    <glyph glyph-name="quoteright" unicode="&#x2019;" horiz-adv-x="231" 
d="M114 700q27 0 42 -20.5t15 -55.5q0 -41 -20.5 -77.5t-40.5 -52.5l-20 -16l-25 27q35 31 45 85q-21 2 -35.5 17.5t-14.5 37.5q0 24 15.5 39.5t38.5 15.5z" />
    <glyph glyph-name="quotesinglbase" unicode="&#x201a;" horiz-adv-x="231" 
d="M114 107q27 0 42 -20.5t15 -55.5q0 -41 -20.5 -77.5t-40.5 -52.5l-20 -16l-25 27q35 31 45 85q-21 2 -35.5 17.5t-14.5 37.5q0 24 15.5 39.5t38.5 15.5z" />
    <glyph glyph-name="quotedblleft" unicode="&#x201c;" horiz-adv-x="381" 
d="M117 501q-27 0 -42 20.5t-15 55.5q0 26 8.5 50.5t20 41t23.5 29.5t20 19l9 6l25 -27q-35 -31 -45 -85q21 -2 35.5 -17.5t14.5 -37.5q0 -24 -15.5 -39.5t-38.5 -15.5zM267 501q-27 0 -42 20.5t-15 55.5q0 26 8.5 50.5t20.5 41t23.5 29.5t19.5 19l9 6l25 -27
q-35 -31 -45 -85q21 -2 35.5 -17.5t14.5 -37.5q0 -24 -15.5 -39.5t-38.5 -15.5z" />
    <glyph glyph-name="quotedblright" unicode="&#x201d;" horiz-adv-x="381" 
d="M114 722q27 0 42 -20.5t15 -55.5q0 -41 -20.5 -77.5t-40.5 -52.5l-20 -16l-25 27q35 31 45 85q-21 2 -35.5 17.5t-14.5 37.5q0 24 15.5 39.5t38.5 15.5zM264 722q27 0 42 -20.5t15 -55.5q0 -41 -20.5 -77.5t-40.5 -52.5l-20 -16l-25 27q35 31 45 85q-21 2 -35.5 17.5
t-14.5 37.5q0 24 15.5 39.5t38.5 15.5z" />
    <glyph glyph-name="quotedblbase" unicode="&#x201e;" horiz-adv-x="381" 
d="M114 107q27 0 42 -20.5t15 -55.5q0 -41 -20.5 -77.5t-40.5 -52.5l-20 -16l-25 27q35 31 45 85q-21 2 -35.5 17.5t-14.5 37.5q0 24 15.5 39.5t38.5 15.5zM264 107q27 0 42 -20.5t15 -55.5q0 -41 -20.5 -77.5t-40.5 -52.5l-20 -16l-25 27q35 31 45 85q-21 2 -35.5 17.5
t-14.5 37.5q0 24 15.5 39.5t38.5 15.5z" />
    <glyph glyph-name="dagger" unicode="&#x2020;" horiz-adv-x="560" 
d="M490 500v-76h-169v-564h-82v564h-169v76h169v200h82v-200h169z" />
    <glyph glyph-name="daggerdbl" unicode="&#x2021;" horiz-adv-x="560" 
d="M490 424h-169v-288h169v-76h-169v-200h-82v200h-169v76h169v288h-169v76h169v200h82v-200h169v-76z" />
    <glyph glyph-name="bullet" unicode="&#x2022;" horiz-adv-x="240" 
d="M120 251q-25 0 -42.5 17.5t-17.5 42.5t17.5 42.5t42.5 17.5t42.5 -17.5t17.5 -42.5t-17.5 -42.5t-42.5 -17.5z" />
    <glyph glyph-name="ellipsis" unicode="&#x2026;" horiz-adv-x="840" 
d="M120 -5q-25 0 -42.5 17.5t-17.5 42.5t17.5 42.5t42.5 17.5t42.5 -17.5t17.5 -42.5t-17.5 -42.5t-42.5 -17.5zM420 -5q-25 0 -42.5 17.5t-17.5 42.5t17.5 42.5t42.5 17.5t42.5 -17.5t17.5 -42.5t-17.5 -42.5t-42.5 -17.5zM720 -5q-25 0 -42.5 17.5t-17.5 42.5t17.5 42.5
t42.5 17.5t42.5 -17.5t17.5 -42.5t-17.5 -42.5t-42.5 -17.5z" />
    <glyph glyph-name="perthousand" unicode="&#x2030;" horiz-adv-x="1126" 
d="M210 345q-62 0 -106 44.5t-44 105.5t44 105.5t106 44.5q61 0 105.5 -44.5t44.5 -105.5t-44.5 -105.5t-105.5 -44.5zM657 640h-94l-446 -640h94zM210 425q30 0 50 20t20 50t-20 50t-50 20t-50 -20t-20 -50t20 -50t50 -20zM569 -5q-61 0 -105.5 44.5t-44.5 105.5
t44.5 105.5t105.5 44.5t105.5 -44.5t44.5 -105.5t-44.5 -105.5t-105.5 -44.5zM926 -5q-62 0 -106 44.5t-44 105.5t44 105.5t106 44.5q61 0 105.5 -44.5t44.5 -105.5t-44.5 -105.5t-105.5 -44.5zM569 75q30 0 50 20t20 50t-20 50t-50 20t-50 -20t-20 -50t20 -50t50 -20z
M926 75q30 0 50 20t20 50t-20 50t-50 20t-50 -20t-20 -50t20 -50t50 -20z" />
    <glyph glyph-name="guilsinglleft" unicode="&#x2039;" horiz-adv-x="381" 
d="M221 97l-161 202l161 202h100l-163 -202l163 -202h-100z" />
    <glyph glyph-name="guilsinglright" unicode="&#x203a;" horiz-adv-x="381" 
d="M160 97h-100l163 202l-163 202h100l161 -202z" />
    <glyph glyph-name="uni2042" unicode="&#x2042;" horiz-adv-x="809" 
d="M559 488l-33 -56l-92 57l3 -109h-66l3 108l-92 -56l-32 56l96 52l-96 52l33 56l91 -57l-3 109h66l-3 -109l92 56l32 -56l-95 -51zM349 108l-33 -56l-92 57l3 -109h-66l3 108l-92 -56l-32 56l96 52l-96 52l33 56l91 -57l-3 109h66l-3 -109l92 56l32 -56l-95 -51zM769 108
l-33 -56l-92 57l3 -109h-66l3 108l-92 -56l-32 56l96 52l-96 52l33 56l91 -57l-3 109h66l-3 -109l92 56l32 -56l-95 -51z" />
    <glyph glyph-name="fraction" unicode="&#x2044;" horiz-adv-x="259" 
d="M419 640l-498 -640h-81l498 640h81z" />
    <glyph glyph-name="uni2051" unicode="&#x2051;" horiz-adv-x="409" 
d="M359 488l-33 -56l-92 57l3 -109h-66l3 108l-92 -56l-32 56l96 52l-96 52l33 56l91 -57l-3 109h66l-3 -109l92 56l32 -56l-95 -51zM359 108l-33 -56l-92 57l3 -109h-66l3 108l-92 -56l-32 56l96 52l-96 52l33 56l91 -57l-3 109h66l-3 -109l92 56l32 -56l-95 -51z" />
    <glyph glyph-name="uni2070" unicode="&#x2070;" horiz-adv-x="380" 
d="M190 336q-63 0 -106.5 51t-43.5 128q0 94 43 141t107 47q70 0 110 -56.5t40 -131.5q0 -77 -43.5 -128t-106.5 -51zM190 399q43 0 64 36t21 83q0 51 -22 86t-63 35q-39 0 -61.5 -35t-22.5 -86q0 -47 21.5 -83t62.5 -36z" />
    <glyph glyph-name="uni2074" unicode="&#x2074;" horiz-adv-x="378" 
d="M274 480h59v-59h-59v-81h-62v81h-167v47l139 232h90v-220zM123 480h89v131h-13z" />
    <glyph glyph-name="uni2075" unicode="&#x2075;" horiz-adv-x="379" 
d="M206 588q49 0 86 -33.5t37 -89.5t-38 -92t-96 -36q-62 0 -103.5 38.5t-41.5 81.5h68q4 -27 26.5 -41.5t48.5 -14.5q28 0 48.5 18.5t20.5 47.5q0 28 -19.5 44t-49.5 16q-47 0 -67 -37l-60 16l22 194h220v-66h-164l-10 -69q31 23 72 23z" />
    <glyph glyph-name="uni2076" unicode="&#x2076;" horiz-adv-x="362" 
d="M188 585q50 0 87 -33.5t37 -89.5q0 -51 -40.5 -88t-90.5 -37q-51 0 -91 37t-40 88q0 57 47 128q10 16 31.5 43.5t37.5 46.5l16 20h75l-95 -121q8 6 26 6zM181 399q30 0 47.5 19t17.5 44q0 27 -17.5 45t-47.5 18t-47.5 -18t-17.5 -45q0 -25 18 -44t47 -19z" />
    <glyph glyph-name="uni2077" unicode="&#x2077;" horiz-adv-x="364" 
d="M50 700h269v-36q-57 -53 -87 -108.5t-37 -99t-9 -116.5h-73q4 106 23.5 173t71.5 119h-158v68z" />
    <glyph glyph-name="uni2078" unicode="&#x2078;" horiz-adv-x="362" 
d="M252 535q29 -9 44.5 -35t15.5 -55q0 -44 -34 -76t-98 -32t-97 32t-33 76q0 30 15 55.5t44 34.5v5q-44 20 -44 71q0 42 33.5 67t82.5 25t82 -25t33 -67q0 -52 -44 -71v-5zM181 645q-22 0 -34.5 -11t-12.5 -28q0 -18 13 -29t33 -11t34 10.5t14 29.5q0 17 -12 28t-35 11z
M180 395q29 0 46 16.5t17 36.5t-16.5 37t-46.5 17t-45.5 -17t-15.5 -37t16 -36.5t45 -16.5z" />
    <glyph glyph-name="uni2079" unicode="&#x2079;" horiz-adv-x="362" 
d="M174 455q-50 0 -87 33.5t-37 89.5q0 51 40.5 88t90.5 37q51 0 91 -37t40 -88q0 -57 -47 -128q-10 -16 -31.5 -43.5t-37.5 -46.5l-16 -20h-75l95 121q-8 -6 -26 -6zM181 641q-30 0 -47.5 -19t-17.5 -44q0 -27 17.5 -45t47.5 -18t47.5 18t17.5 45q0 25 -18 44t-47 19z" />
    <glyph glyph-name="uni2080" unicode="&#x2080;" horiz-adv-x="380" 
d="M190 -104q-63 0 -106.5 51t-43.5 128q0 94 43 141t107 47q70 0 110 -56.5t40 -131.5q0 -77 -43.5 -128t-106.5 -51zM190 -41q43 0 64 36t21 83q0 51 -22 86t-63 35q-39 0 -61.5 -35t-22.5 -86q0 -47 21.5 -83t62.5 -36z" />
    <glyph glyph-name="uni2081" unicode="&#x2081;" horiz-adv-x="255" 
d="M134 -100v233h-89v57h55q17 0 27.5 11t10.5 30v29h66l1 -360h-71z" />
    <glyph glyph-name="uni2082" unicode="&#x2082;" horiz-adv-x="362" 
d="M207 43q-56 -32 -69 -48q-10 -13 -10 -28h181v-66h-259v36q0 93 108 147q8 4 29.5 13.5t30 14.5t17 15.5t8.5 23.5q0 22 -16 35.5t-42 13.5q-27 0 -44.5 -19t-17.5 -50h-70q0 49 33.5 90t94.5 41q55 0 93 -30t38 -76q0 -21 -6 -37.5t-19.5 -28t-24 -18.5t-30 -16
t-25.5 -13z" />
    <glyph glyph-name="uni2083" unicode="&#x2083;" horiz-adv-x="363" 
d="M254 88q28 -9 43.5 -31t15.5 -50q0 -48 -35 -79t-96 -31t-96.5 36t-35.5 92h67q6 -66 68 -66q59 0 59 52q0 19 -17 33.5t-53 14.5h-26v57h23q62 0 62 48q0 15 -14.5 26.5t-35.5 11.5q-49 0 -55 -40h-63q0 43 34 72t84 29q48 0 82.5 -26.5t34.5 -63.5q0 -54 -46 -79v-6z
" />
    <glyph glyph-name="uni2084" unicode="&#x2084;" horiz-adv-x="378" 
d="M274 40h59v-59h-59v-81h-62v81h-167v47l139 232h90v-220zM123 40h89v131h-13z" />
    <glyph glyph-name="uni2085" unicode="&#x2085;" horiz-adv-x="379" 
d="M206 148q49 0 86 -33.5t37 -89.5t-38 -92t-96 -36q-62 0 -103.5 38.5t-41.5 81.5h68q4 -27 26.5 -41.5t48.5 -14.5q28 0 48.5 18.5t20.5 47.5q0 28 -19.5 44t-49.5 16q-47 0 -67 -37l-60 16l22 194h220v-66h-164l-10 -69q31 23 72 23z" />
    <glyph glyph-name="uni2086" unicode="&#x2086;" horiz-adv-x="362" 
d="M188 145q50 0 87 -33.5t37 -89.5q0 -51 -40.5 -88t-90.5 -37q-51 0 -91 37t-40 88q0 57 47 128q10 16 31.5 43.5t37.5 46.5l16 20h75l-95 -121q8 6 26 6zM181 -41q30 0 47.5 19t17.5 44q0 27 -17.5 45t-47.5 18t-47.5 -18t-17.5 -45q0 -25 18 -44t47 -19z" />
    <glyph glyph-name="uni2087" unicode="&#x2087;" horiz-adv-x="364" 
d="M50 260h269v-36q-57 -53 -87 -108.5t-37 -99t-9 -116.5h-73q4 106 23.5 173t71.5 119h-158v68z" />
    <glyph glyph-name="uni2088" unicode="&#x2088;" horiz-adv-x="362" 
d="M252 95q29 -9 44.5 -35t15.5 -55q0 -44 -34 -76t-98 -32t-97 32t-33 76q0 30 15 55.5t44 34.5v5q-44 20 -44 71q0 42 33.5 67t82.5 25t82 -25t33 -67q0 -52 -44 -71v-5zM181 205q-22 0 -34.5 -11t-12.5 -28q0 -18 13 -29t33 -11t34 10.5t14 29.5q0 17 -12 28t-35 11z
M180 -45q29 0 46 16.5t17 36.5t-16.5 37t-46.5 17t-45.5 -17t-15.5 -37t16 -36.5t45 -16.5z" />
    <glyph glyph-name="uni2089" unicode="&#x2089;" horiz-adv-x="362" 
d="M174 15q-50 0 -87 33.5t-37 89.5q0 51 40.5 88t90.5 37q51 0 91 -37t40 -88q0 -57 -47 -128q-10 -16 -31.5 -43.5t-37.5 -46.5l-16 -20h-75l95 121q-8 -6 -26 -6zM181 201q-30 0 -47.5 -19t-17.5 -44q0 -27 17.5 -45t47.5 -18t47.5 18t17.5 45q0 25 -18 44t-47 19z" />
    <glyph glyph-name="Euro" unicode="&#x20ac;" horiz-adv-x="660" 
d="M424 78q48 0 90.5 20t64.5 42l31 -73q-85 -72 -189 -72q-92 0 -172.5 62t-111.5 161h-77v71h63q-1 10 -1 31q0 14 2 38h-64v71h80q32 97 111.5 156.5t169.5 59.5q104 0 189 -72l-31 -73q-22 22 -64.5 42t-90.5 20q-61 0 -110.5 -36t-75.5 -97h307l-29 -71h-297
q-2 -24 -2 -38q0 -11 2 -31h276l-30 -71h-230q25 -64 76 -102t113 -38z" />
    <glyph glyph-name="uni2113" unicode="&#x2113;" horiz-adv-x="431" 
d="M208 159q0 -45 26 -64.5t63 -19.5q20 0 43.5 6t37.5 12l13 6v-72q-44 -32 -109 -32q-70 0 -114 44t-44 112v80q-23 -4 -44 -5t-30 0l-10 1v70q41 3 84 12v151q0 87 34.5 136t105.5 49q48 0 79.5 -25.5t42 -57t10.5 -66.5q0 -70 -46.5 -138.5t-141.5 -104.5v-94zM264 569
q-56 0 -56 -109v-121q53 28 82.5 71.5t29.5 86.5q0 31 -15 51.5t-41 20.5z" />
    <glyph glyph-name="trademark" unicode="&#x2122;" horiz-adv-x="737" 
d="M40 642v58h246v-58h-92v-292h-62v292h-92zM607 700h90v-350h-59v261h-5l-81 -236h-70l-81 236h-4v-261h-60v350h90l87 -251h6z" />
    <glyph glyph-name="arrowup" unicode="&#x2191;" horiz-adv-x="696" 
d="M646 445l-58 -58l-200 202v-622h-79v623l-201 -203l-58 58l285 285h26z" />
    <glyph glyph-name="arrowdown" unicode="&#x2193;" horiz-adv-x="696" 
d="M588 303l58 -58l-285 -285h-26l-285 285l58 58l200 -202v622h79v-623z" />
    <glyph glyph-name="arrowboth" unicode="&#x2194;" horiz-adv-x="1034" 
d="M709 609l285 -285v-26l-285 -285l-58 58l203 201h-674l203 -201l-58 -58l-285 285v26l285 285l58 -58l-202 -200h672l-202 200z" />
    <glyph glyph-name="arrowupdn" unicode="&#x2195;" horiz-adv-x="696" 
d="M388 5l200 202l58 -58l-285 -285h-26l-285 285l58 58l201 -203v673l-201 -203l-58 58l285 285h26l285 -285l-58 -58l-200 202v-671z" />
    <glyph glyph-name="uni2196" unicode="&#x2196;" horiz-adv-x="657" 
d="M60 552l17 17h405v-81h-286l421 -420l-56 -56l-420 420v-284h-81v404z" />
    <glyph glyph-name="uni2197" unicode="&#x2197;" horiz-adv-x="657" 
d="M597 552v-404h-81v284l-420 -420l-56 56l421 420h-286v81h405z" />
    <glyph glyph-name="uni2198" unicode="&#x2198;" horiz-adv-x="657" 
d="M580 89h-404v81h284l-420 420l56 56l420 -421v286h81v-405z" />
    <glyph glyph-name="uni2199" unicode="&#x2199;" horiz-adv-x="657" 
d="M77 89l-17 17v405h81v-286l420 421l56 -56l-420 -420h284v-81h-404z" />
    <glyph glyph-name="partialdiff" unicode="&#x2202;" horiz-adv-x="600" 
d="M540 332q0 -175 -64.5 -256t-167.5 -81q-104 0 -176 70.5t-72 175.5q0 107 72.5 180.5t170.5 73.5q38 0 73 -12.5t51 -24.5l16 -12q-11 91 -43.5 147.5t-107.5 66.5q-40 5 -71.5 -8t-42.5 -28l-12 -15l-78 32q3 5 8 12.5t23 26t39.5 32.5t57.5 24t76 7q67 -5 116.5 -42.5
t77.5 -97t41 -127.5t13 -144zM298 77q68 0 111 51t43 121q0 69 -42.5 116.5t-108.5 47.5q-67 0 -110 -49.5t-43 -120.5t42.5 -118.5t107.5 -47.5z" />
    <glyph glyph-name="emptyset" unicode="&#x2205;" horiz-adv-x="680" 
d="M577 479q63 -80 63 -184q0 -125 -88 -212.5t-212 -87.5q-104 0 -184 63l-58 -59l-53 53l58 58q-63 82 -63 185q0 125 88 212.5t212 87.5q104 0 184 -63l58 58l53 -53zM340 521q-94 0 -160 -66t-66 -160q0 -72 42 -132l315 316q-60 42 -131 42zM340 69q93 0 159.5 66
t66.5 160q0 71 -42 131l-315 -315q58 -42 131 -42z" />
    <glyph glyph-name="product" unicode="&#x220f;" horiz-adv-x="700" 
d="M80 700h540v-787h-93v700h-354v-700h-93v787z" />
    <glyph glyph-name="summation" unicode="&#x2211;" horiz-adv-x="601" 
d="M50 633v67h501v-87h-366l257 -306l-257 -307h366v-87h-501v67l280 327z" />
    <glyph glyph-name="minus" unicode="&#x2212;" horiz-adv-x="480" 
d="M60 349h360v-76h-360v76z" />
    <glyph glyph-name="radical" unicode="&#x221a;" horiz-adv-x="712" 
d="M508 800h184v-76h-121l-263 -724h-123l-145 340h92l108 -253h9z" />
    <glyph glyph-name="infinity" unicode="&#x221e;" horiz-adv-x="791" 
d="M578 505q70 0 121.5 -46.5t51.5 -122.5t-51 -122t-122 -46q-98 0 -180 103h-9q-46 -53 -87 -78t-90 -25q-70 0 -121 46t-51 122t51.5 122.5t121.5 46.5q97 0 180 -104h8q87 104 177 104zM123 335q0 -43 27 -66t63 -23q32 0 62 20.5t80 68.5q-35 34 -50.5 48t-41 28
t-49.5 14q-36 0 -63.5 -23.5t-27.5 -66.5zM578 246q36 0 63 23t27 66t-27.5 66.5t-63.5 23.5q-11 0 -20.5 -2t-21 -8t-18.5 -9.5t-20 -15t-18.5 -16t-21.5 -19.5t-21 -20q49 -48 78.5 -68.5t63.5 -20.5z" />
    <glyph glyph-name="integral" unicode="&#x222b;" horiz-adv-x="527" 
d="M467 682l-20 -60q-21 13 -39 13q-22 0 -38.5 -16t-18.5 -35l-100 -666q-8 -55 -40.5 -89t-76.5 -34q-20 0 -38.5 5.5t-27.5 11.5l-8 6l20 60q21 -13 39 -13q23 0 38 17.5t19 43.5l100 656q8 55 40 89t77 34q20 0 38.5 -5.5t26.5 -11.5z" />
    <glyph glyph-name="approxequal" unicode="&#x2248;" horiz-adv-x="620" 
d="M560 452q-2 -5 -5.5 -13t-19 -27t-34.5 -32.5t-53 -21.5t-74 -1q-31 5 -81.5 24.5t-74.5 21.5q-28 3 -50 -8t-30 -23l-8 -13l-70 30q2 5 6 12.5t19.5 26t34.5 32t53 22t73 2.5q34 -5 83.5 -24.5t72.5 -21.5q28 -3 50 8t30 24l8 12zM560 272q-2 -5 -5.5 -13t-19 -27
t-34.5 -32.5t-53 -21.5t-74 -1q-31 5 -81.5 24.5t-74.5 21.5q-28 3 -50 -8t-30 -23l-8 -13l-70 30q2 5 6 12.5t19.5 26t34.5 32t53 22t73 2.5q34 -5 83.5 -24.5t72.5 -21.5q28 -3 50 8t30 24l8 12z" />
    <glyph glyph-name="notequal" unicode="&#x2260;" horiz-adv-x="595" 
d="M535 339h-175l-59 -84h234v-76h-287l-73 -104l-44 31l51 73h-122v76h175l58 84h-233v76h286l73 104l45 -32l-51 -72h122v-76z" />
    <glyph glyph-name="lessequal" unicode="&#x2264;" horiz-adv-x="535" 
d="M475 605v-98l-296 -136v-14l296 -135v-98l-415 205v70zM475 0h-415v76h415v-76z" />
    <glyph glyph-name="greaterequal" unicode="&#x2265;" horiz-adv-x="535" 
d="M60 605l415 -206v-70l-415 -205v98l296 135v14l-296 136v98zM60 0v76h415v-76h-415z" />
    <glyph glyph-name="lozenge" unicode="&#x25ca;" horiz-adv-x="660" 
d="M330 580l290 -290l-290 -290l-290 290zM330 470l-180 -180l180 -180l180 180z" />
    <glyph glyph-name="uni2731" unicode="&#x2731;" horiz-adv-x="547" 
d="M477 225l-40 -68l-128 79l4 -151h-79l4 151l-129 -79l-38 68l132 72l-133 72l40 68l128 -79l-4 151h79l-4 -151l129 79l38 -68l-132 -72z" />
    <glyph glyph-name="uni2780" unicode="&#x2780;" 
d="M415 -5q-147 0 -251 104t-104 251t104 251t251 104q146 0 250.5 -104t104.5 -251t-104.5 -251t-250.5 -104zM415 69q116 0 198.5 82.5t82.5 198.5t-82.5 198.5t-198.5 82.5t-198.5 -82.5t-82.5 -198.5t82.5 -198.5t198.5 -82.5zM397 155v258h-89v56h55q17 0 27.5 11
t10.5 28v32h66l1 -385h-71z" />
    <glyph glyph-name="uni2781" unicode="&#x2781;" 
d="M415 -5q-147 0 -251 104t-104 251t104 251t251 104q146 0 250.5 -104t104.5 -251t-104.5 -251t-250.5 -104zM415 69q116 0 198.5 82.5t82.5 198.5t-82.5 198.5t-198.5 82.5t-198.5 -82.5t-82.5 -198.5t82.5 -198.5t198.5 -82.5zM440 315q-45 -27 -64.5 -44t-19.5 -37h191
v-66h-269v36q0 39 19.5 70.5t39.5 46.5t54 35q5 3 18 10.5t19 11.5l16.5 11t15 12t10.5 12t8.5 14.5t2.5 15.5q0 22 -17 35t-44 13q-33 0 -52 -18.5t-19 -50.5h-70q0 50 35.5 92t102.5 42q57 0 95 -31t38 -80q0 -24 -8.5 -43t-28 -36t-32.5 -25.5t-41 -25.5z" />
    <glyph glyph-name="uni2782" unicode="&#x2782;" 
d="M415 -5q-147 0 -251 104t-104 251t104 251t251 104q146 0 250.5 -104t104.5 -251t-104.5 -251t-250.5 -104zM415 69q116 0 198.5 82.5t82.5 198.5t-82.5 198.5t-198.5 82.5t-198.5 -82.5t-82.5 -198.5t82.5 -198.5t198.5 -82.5zM489 360q28 -9 46 -33t18 -57
q0 -49 -37 -82.5t-98 -33.5q-63 0 -100.5 36t-37.5 92h67q2 -28 20.5 -47t51.5 -19q31 0 48 16t17 41q0 26 -18.5 42t-56.5 16h-26v57h23q67 0 67 50q0 44 -56 44q-54 0 -59 -40h-66q0 44 36.5 73.5t90.5 29.5q52 0 86.5 -27t34.5 -71q0 -55 -51 -81v-6z" />
    <glyph glyph-name="uni2783" unicode="&#x2783;" 
d="M415 -5q-147 0 -251 104t-104 251t104 251t251 104q146 0 250.5 -104t104.5 -251t-104.5 -251t-250.5 -104zM415 69q116 0 198.5 82.5t82.5 198.5t-82.5 198.5t-198.5 82.5t-198.5 -82.5t-82.5 -198.5t82.5 -198.5t198.5 -82.5zM496 296h59v-59h-59v-81h-64v81h-187v47
l159 257h92v-245zM327 296h105v156h-9z" />
    <glyph glyph-name="uni2784" unicode="&#x2784;" 
d="M415 -5q-147 0 -251 104t-104 251t104 251t251 104q146 0 250.5 -104t104.5 -251t-104.5 -251t-250.5 -104zM415 69q116 0 198.5 82.5t82.5 198.5t-82.5 198.5t-198.5 82.5t-198.5 -82.5t-82.5 -198.5t82.5 -198.5t198.5 -82.5zM427 416q54 0 93.5 -37.5t39.5 -95.5
t-40 -95.5t-102 -37.5q-65 0 -106 39t-41 86h68q4 -29 27 -45t51 -16q31 0 53.5 20t22.5 51q0 30 -21.5 50t-56.5 20q-48 0 -68 -37l-60 16l22 204h230v-66h-174l-10 -77q32 21 72 21z" />
    <glyph glyph-name="uni2785" unicode="&#x2785;" 
d="M415 -5q-147 0 -251 104t-104 251t104 251t251 104q146 0 250.5 -104t104.5 -251t-104.5 -251t-250.5 -104zM415 69q116 0 198.5 82.5t82.5 198.5t-82.5 198.5t-198.5 82.5t-198.5 -82.5t-82.5 -198.5t82.5 -198.5t198.5 -82.5zM425 417q48 0 86 -34.5t38 -93.5
q0 -60 -40 -95t-96 -35t-96 36.5t-40 98.5q0 55 47 128l90 125h80l-108 -144q12 14 39 14zM413 221q31 0 50.5 19t19.5 49q0 29 -19.5 48.5t-50.5 19.5t-50.5 -19.5t-19.5 -48.5t19.5 -48.5t50.5 -19.5z" />
    <glyph glyph-name="uni2786" unicode="&#x2786;" 
d="M415 -5q-147 0 -251 104t-104 251t104 251t251 104q146 0 250.5 -104t104.5 -251t-104.5 -251t-250.5 -104zM415 69q116 0 198.5 82.5t82.5 198.5t-82.5 198.5t-198.5 82.5t-198.5 -82.5t-82.5 -198.5t82.5 -198.5t198.5 -82.5zM296 526h269v-36q-44 -41 -71 -79.5
t-40 -83.5t-17 -83.5t-5 -102.5h-73q4 124 23.5 194t71.5 123h-158v68z" />
    <glyph glyph-name="uni2787" unicode="&#x2787;" 
d="M415 -5q-147 0 -251 104t-104 251t104 251t251 104q146 0 250.5 -104t104.5 -251t-104.5 -251t-250.5 -104zM415 69q116 0 198.5 82.5t82.5 198.5t-82.5 198.5t-198.5 82.5t-198.5 -82.5t-82.5 -198.5t82.5 -198.5t198.5 -82.5zM488 365q31 -10 48 -36.5t17 -59.5
q0 -49 -36 -82t-101 -33t-100 33t-35 82q0 33 16.5 59.5t47.5 36.5v5q-49 21 -49 77q0 44 36 71t85 27t84.5 -27t35.5 -71q0 -56 -49 -77v-5zM417 484q-24 0 -38 -12.5t-14 -32.5q0 -22 15 -34t36 -12t37 12.5t16 34.5q0 20 -14 32t-38 12zM416 215q32 0 50 17.5t18 42.5
q0 24 -18 42t-50 18q-33 0 -49.5 -18t-16.5 -42q0 -25 17.5 -42.5t48.5 -17.5z" />
    <glyph glyph-name="uni2788" unicode="&#x2788;" 
d="M415 -5q-147 0 -251 104t-104 251t104 251t251 104q146 0 250.5 -104t104.5 -251t-104.5 -251t-250.5 -104zM415 69q116 0 198.5 82.5t82.5 198.5t-82.5 198.5t-198.5 82.5t-198.5 -82.5t-82.5 -198.5t82.5 -198.5t198.5 -82.5zM412 283q-48 0 -86 34.5t-38 93.5
q0 60 40 95t96 35t96 -36.5t40 -98.5q0 -55 -47 -128l-90 -125h-80l108 144q-12 -14 -39 -14zM424 479q-31 0 -50.5 -19t-19.5 -49q0 -29 19.5 -48.5t50.5 -19.5t50.5 19.5t19.5 48.5t-19.5 48.5t-50.5 19.5z" />
    <glyph glyph-name="uni2789" unicode="&#x2789;" 
d="M415 -5q-147 0 -251 104t-104 251t104 251t251 104q146 0 250.5 -104t104.5 -251t-104.5 -251t-250.5 -104zM415 69q116 0 198.5 82.5t82.5 198.5t-82.5 198.5t-198.5 82.5t-198.5 -82.5t-82.5 -198.5t82.5 -198.5t198.5 -82.5zM503 196q-55 0 -87.5 42t-32.5 112
t32.5 111.5t87.5 41.5t87.5 -41.5t32.5 -111.5t-32.5 -112t-87.5 -42zM279 199v194h-70v52h43q14 0 22 8.5t8 21.5v25h60l1 -301h-64zM504 259q54 0 54 88q0 38 -13 65t-41 27t-41.5 -26.5t-13.5 -64.5t13 -63.5t42 -25.5z" />
    <glyph glyph-name="uni278A" unicode="&#x278a;" 
d="M415 -5q146 0 250.5 104t104.5 251t-104.5 251t-250.5 104q-147 0 -251 -104t-104 -251t104 -251t251 -104zM397 155v258h-89v56h55q17 0 27.5 11t10.5 28v32h66l1 -385h-71z" />
    <glyph glyph-name="uni278B" unicode="&#x278b;" 
d="M415 -5q146 0 250.5 104t104.5 251t-104.5 251t-250.5 104q-147 0 -251 -104t-104 -251t104 -251t251 -104zM440 315q-45 -27 -64.5 -44t-19.5 -37h191v-66h-269v36q0 39 19.5 70.5t39.5 46.5t54 35q5 3 18 10.5t19 11.5l16.5 11t15 12t10.5 12t8.5 14.5t2.5 15.5
q0 22 -17 35t-44 13q-33 0 -52 -18.5t-19 -50.5h-70q0 50 35.5 92t102.5 42q57 0 95 -31t38 -80q0 -24 -8.5 -43t-28 -36t-32.5 -25.5t-41 -25.5z" />
    <glyph glyph-name="uni278C" unicode="&#x278c;" 
d="M415 -5q146 0 250.5 104t104.5 251t-104.5 251t-250.5 104q-147 0 -251 -104t-104 -251t104 -251t251 -104zM489 360q28 -9 46 -33t18 -57q0 -49 -37 -82.5t-98 -33.5q-63 0 -100.5 36t-37.5 92h67q2 -28 20.5 -47t51.5 -19q31 0 48 16t17 41q0 26 -18.5 42t-56.5 16h-26
v57h23q67 0 67 50q0 44 -56 44q-54 0 -59 -40h-66q0 44 36.5 73.5t90.5 29.5q52 0 86.5 -27t34.5 -71q0 -55 -51 -81v-6z" />
    <glyph glyph-name="uni278D" unicode="&#x278d;" 
d="M415 -5q146 0 250.5 104t104.5 251t-104.5 251t-250.5 104q-147 0 -251 -104t-104 -251t104 -251t251 -104zM496 296h59v-59h-59v-81h-64v81h-187v47l159 257h92v-245zM327 296h105v156h-9z" />
    <glyph glyph-name="uni278E" unicode="&#x278e;" 
d="M415 -5q146 0 250.5 104t104.5 251t-104.5 251t-250.5 104q-147 0 -251 -104t-104 -251t104 -251t251 -104zM427 416q54 0 93.5 -37.5t39.5 -95.5t-40 -95.5t-102 -37.5q-65 0 -106 39t-41 86h68q4 -29 27 -45t51 -16q31 0 53.5 20t22.5 51q0 30 -21.5 50t-56.5 20
q-48 0 -68 -37l-60 16l22 204h230v-66h-174l-10 -77q32 21 72 21z" />
    <glyph glyph-name="uni278F" unicode="&#x278f;" 
d="M415 -5q146 0 250.5 104t104.5 251t-104.5 251t-250.5 104q-147 0 -251 -104t-104 -251t104 -251t251 -104zM425 417q48 0 86 -34.5t38 -93.5q0 -60 -40 -95t-96 -35t-96 36.5t-40 98.5q0 55 47 128l90 125h80l-108 -144q12 14 39 14zM413 221q31 0 50.5 19t19.5 49
q0 29 -19.5 48.5t-50.5 19.5t-50.5 -19.5t-19.5 -48.5t19.5 -48.5t50.5 -19.5z" />
    <glyph glyph-name="uni2790" unicode="&#x2790;" 
d="M415 -5q146 0 250.5 104t104.5 251t-104.5 251t-250.5 104q-147 0 -251 -104t-104 -251t104 -251t251 -104zM296 526h269v-36q-44 -41 -71 -79.5t-40 -83.5t-17 -83.5t-5 -102.5h-73q4 124 23.5 194t71.5 123h-158v68z" />
    <glyph glyph-name="uni2791" unicode="&#x2791;" 
d="M415 -5q146 0 250.5 104t104.5 251t-104.5 251t-250.5 104q-147 0 -251 -104t-104 -251t104 -251t251 -104zM488 365q31 -10 48 -36.5t17 -59.5q0 -49 -36 -82t-101 -33t-100 33t-35 82q0 33 16.5 59.5t47.5 36.5v5q-49 21 -49 77q0 44 36 71t85 27t84.5 -27t35.5 -71
q0 -56 -49 -77v-5zM417 484q-24 0 -38 -12.5t-14 -32.5q0 -22 15 -34t36 -12t37 12.5t16 34.5q0 20 -14 32t-38 12zM416 215q32 0 50 17.5t18 42.5q0 24 -18 42t-50 18q-33 0 -49.5 -18t-16.5 -42q0 -25 17.5 -42.5t48.5 -17.5z" />
    <glyph glyph-name="uni2792" unicode="&#x2792;" 
d="M415 -5q146 0 250.5 104t104.5 251t-104.5 251t-250.5 104q-147 0 -251 -104t-104 -251t104 -251t251 -104zM412 283q-48 0 -86 34.5t-38 93.5q0 60 40 95t96 35t96 -36.5t40 -98.5q0 -55 -47 -128l-90 -125h-80l108 144q-12 -14 -39 -14zM424 479q-31 0 -50.5 -19
t-19.5 -49q0 -29 19.5 -48.5t50.5 -19.5t50.5 19.5t19.5 48.5t-19.5 48.5t-50.5 19.5z" />
    <glyph glyph-name="uni2793" unicode="&#x2793;" 
d="M415 -5q146 0 250.5 104t104.5 251t-104.5 251t-250.5 104q-147 0 -251 -104t-104 -251t104 -251t251 -104zM507 196q-55 0 -87.5 42t-32.5 112t32.5 111.5t87.5 41.5t87.5 -41.5t32.5 -111.5t-32.5 -112t-87.5 -42zM275 199v194h-70v52h43q14 0 22 8.5t8 21.5v25h60
l1 -301h-64zM508 259q54 0 54 88q0 38 -13 65t-41 27t-41.5 -26.5t-13.5 -64.5t13 -63.5t42 -25.5z" />
    <glyph glyph-name="a.fina" horiz-adv-x="580" 
d="M508 98l52 -27q-1 -3 -2.5 -8t-9 -18.5t-17 -23.5t-28 -18t-40.5 -8q-65 0 -88 65q-49 -65 -146 -65q-75 0 -122 40.5t-47 105.5q0 49 24 82t79 51.5t84 24t98 13.5l21 3q-5 111 -106 111q-25 0 -44.5 -6.5t-29.5 -15.5t-16.5 -18t-8.5 -16l-2 -6h-86q7 57 57.5 99
t132.5 42q83 0 132.5 -50t49.5 -154v-173q0 -62 31 -62q12 0 20 8t10 16zM143 138q0 -50 54 -64q56 -15 111 18t57 95v52q-53 -5 -86 -10.5t-68 -16.5t-51.5 -29.5t-16.5 -44.5z" />
    <glyph glyph-name="aacute.fina" horiz-adv-x="578" 
d="M391 680l-104 -125h-61l58 125h107zM508 98l52 -27q-1 -3 -2.5 -8t-9 -18.5t-17 -23.5t-28 -18t-40.5 -8q-65 0 -88 65q-49 -65 -146 -65q-75 0 -122 40.5t-47 105.5q0 49 24 82t79 51.5t84 24t98 13.5l21 3q-5 111 -106 111q-25 0 -44.5 -6.5t-29.5 -15.5t-16.5 -18
t-8.5 -16l-2 -6h-86q7 57 57.5 99t132.5 42q83 0 132.5 -50t49.5 -154v-173q0 -62 31 -62q12 0 20 8t10 16zM143 138q0 -50 54 -64q56 -15 111 18t57 95v52q-53 -5 -86 -10.5t-68 -16.5t-51.5 -29.5t-16.5 -44.5z" />
    <glyph glyph-name="abreve.fina" horiz-adv-x="578" 
d="M265 573q-57 0 -94.5 39.5t-37.5 87.5h72q0 -19 16 -38t43 -19t42 18.5t15 38.5h73q0 -48 -36 -87.5t-93 -39.5zM508 98l52 -27q-1 -3 -2.5 -8t-9 -18.5t-17 -23.5t-28 -18t-40.5 -8q-65 0 -88 65q-49 -65 -146 -65q-75 0 -122 40.5t-47 105.5q0 49 24 82t79 51.5t84 24
t98 13.5l21 3q-5 111 -106 111q-25 0 -44.5 -6.5t-29.5 -15.5t-16.5 -18t-8.5 -16l-2 -6h-86q7 57 57.5 99t132.5 42q83 0 132.5 -50t49.5 -154v-173q0 -62 31 -62q12 0 20 8t10 16zM143 138q0 -50 54 -64q56 -15 111 18t57 95v52q-53 -5 -86 -10.5t-68 -16.5t-51.5 -29.5
t-16.5 -44.5z" />
    <glyph glyph-name="uni01CE.fina" horiz-adv-x="578" 
d="M304 556h-83l-99 154h81l53 -90h13l53 90h81zM508 98l52 -27q-1 -3 -2.5 -8t-9 -18.5t-17 -23.5t-28 -18t-40.5 -8q-65 0 -88 65q-49 -65 -146 -65q-75 0 -122 40.5t-47 105.5q0 49 24 82t79 51.5t84 24t98 13.5l21 3q-5 111 -106 111q-25 0 -44.5 -6.5t-29.5 -15.5
t-16.5 -18t-8.5 -16l-2 -6h-86q7 57 57.5 99t132.5 42q83 0 132.5 -50t49.5 -154v-173q0 -62 31 -62q12 0 20 8t10 16zM143 138q0 -50 54 -64q56 -15 111 18t57 95v52q-53 -5 -86 -10.5t-68 -16.5t-51.5 -29.5t-16.5 -44.5z" />
    <glyph glyph-name="acircumflex.fina" horiz-adv-x="578" 
d="M256 646l-53 -90h-81l99 154h83l99 -154h-81l-53 90h-13zM508 98l52 -27q-1 -3 -2.5 -8t-9 -18.5t-17 -23.5t-28 -18t-40.5 -8q-65 0 -88 65q-49 -65 -146 -65q-75 0 -122 40.5t-47 105.5q0 49 24 82t79 51.5t84 24t98 13.5l21 3q-5 111 -106 111q-25 0 -44.5 -6.5
t-29.5 -15.5t-16.5 -18t-8.5 -16l-2 -6h-86q7 57 57.5 99t132.5 42q83 0 132.5 -50t49.5 -154v-173q0 -62 31 -62q12 0 20 8t10 16zM143 138q0 -50 54 -64q56 -15 111 18t57 95v52q-53 -5 -86 -10.5t-68 -16.5t-51.5 -29.5t-16.5 -44.5z" />
    <glyph glyph-name="adieresis.fina" horiz-adv-x="578" 
d="M177 551q-23 0 -39 16.5t-16 38.5q0 23 16 39t39 16t39 -16t16 -39q0 -22 -16 -38.5t-39 -16.5zM347 551q-23 0 -39 16.5t-16 38.5q0 23 16 39t39 16t39 -16t16 -39q0 -22 -16 -38.5t-39 -16.5zM508 98l52 -27q-1 -3 -2.5 -8t-9 -18.5t-17 -23.5t-28 -18t-40.5 -8
q-65 0 -88 65q-49 -65 -146 -65q-75 0 -122 40.5t-47 105.5q0 49 24 82t79 51.5t84 24t98 13.5l21 3q-5 111 -106 111q-25 0 -44.5 -6.5t-29.5 -15.5t-16.5 -18t-8.5 -16l-2 -6h-86q7 57 57.5 99t132.5 42q83 0 132.5 -50t49.5 -154v-173q0 -62 31 -62q12 0 20 8t10 16z
M143 138q0 -50 54 -64q56 -15 111 18t57 95v52q-53 -5 -86 -10.5t-68 -16.5t-51.5 -29.5t-16.5 -44.5z" />
    <glyph glyph-name="agrave.fina" horiz-adv-x="578" 
d="M315 555h-61l-104 125h107zM508 98l52 -27q-1 -3 -2.5 -8t-9 -18.5t-17 -23.5t-28 -18t-40.5 -8q-65 0 -88 65q-49 -65 -146 -65q-75 0 -122 40.5t-47 105.5q0 49 24 82t79 51.5t84 24t98 13.5l21 3q-5 111 -106 111q-25 0 -44.5 -6.5t-29.5 -15.5t-16.5 -18t-8.5 -16
l-2 -6h-86q7 57 57.5 99t132.5 42q83 0 132.5 -50t49.5 -154v-173q0 -62 31 -62q12 0 20 8t10 16zM143 138q0 -50 54 -64q56 -15 111 18t57 95v52q-53 -5 -86 -10.5t-68 -16.5t-51.5 -29.5t-16.5 -44.5z" />
    <glyph glyph-name="amacron.fina" horiz-adv-x="578" 
d="M423 650v-70h-330v70h330zM508 98l52 -27q-1 -3 -2.5 -8t-9 -18.5t-17 -23.5t-28 -18t-40.5 -8q-65 0 -88 65q-49 -65 -146 -65q-75 0 -122 40.5t-47 105.5q0 49 24 82t79 51.5t84 24t98 13.5l21 3q-5 111 -106 111q-25 0 -44.5 -6.5t-29.5 -15.5t-16.5 -18t-8.5 -16
l-2 -6h-86q7 57 57.5 99t132.5 42q83 0 132.5 -50t49.5 -154v-173q0 -62 31 -62q12 0 20 8t10 16zM143 138q0 -50 54 -64q56 -15 111 18t57 95v52q-53 -5 -86 -10.5t-68 -16.5t-51.5 -29.5t-16.5 -44.5z" />
    <glyph glyph-name="aogonek.fina" horiz-adv-x="578" 
d="M484 -3q-55 -33 -55 -83q0 -36 32 -48t56 -1l3 -60q-22 -11 -51 -11q-43 0 -76 28t-33 76q0 65 61 106q-31 15 -46 56q-49 -65 -146 -65q-75 0 -122 40.5t-47 105.5q0 49 24 82t79 51.5t84 24t98 13.5l21 3q-5 111 -106 111q-25 0 -44.5 -6.5t-29.5 -15.5t-16.5 -18
t-8.5 -16l-2 -6h-86q7 57 57.5 99t132.5 42q83 0 132.5 -50t49.5 -154v-173q0 -62 31 -62q12 0 20 8t10 16l2 8l52 -27q-2 -7 -6 -17.5t-23.5 -31t-46.5 -25.5zM143 138q0 -50 54 -64q56 -15 111 18t57 95v52q-53 -5 -86 -10.5t-68 -16.5t-51.5 -29.5t-16.5 -44.5z" />
    <glyph glyph-name="aring.fina" horiz-adv-x="578" 
d="M273 535q-40 0 -68 28t-28 67t28 67t68 28q39 0 67.5 -28t28.5 -67t-28.5 -67t-67.5 -28zM273 669q-16 0 -27 -11.5t-11 -27.5t11 -27.5t27 -11.5t27 11.5t11 27.5t-11 27.5t-27 11.5zM508 98l52 -27q-1 -3 -2.5 -8t-9 -18.5t-17 -23.5t-28 -18t-40.5 -8q-65 0 -88 65
q-49 -65 -146 -65q-75 0 -122 40.5t-47 105.5q0 49 24 82t79 51.5t84 24t98 13.5l21 3q-5 111 -106 111q-25 0 -44.5 -6.5t-29.5 -15.5t-16.5 -18t-8.5 -16l-2 -6h-86q7 57 57.5 99t132.5 42q83 0 132.5 -50t49.5 -154v-173q0 -62 31 -62q12 0 20 8t10 16zM143 138
q0 -50 54 -64q56 -15 111 18t57 95v52q-53 -5 -86 -10.5t-68 -16.5t-51.5 -29.5t-16.5 -44.5z" />
    <glyph glyph-name="atilde.fina" horiz-adv-x="578" 
d="M202 594q-17 2 -30.5 -7t-18.5 -19l-5 -9l-53 23q2 4 5 10.5t14.5 23t25 28.5t35 19.5t45.5 3.5q22 -4 52 -22.5t45 -20.5q17 -2 30.5 6.5t18.5 18.5l6 10l53 -24q-2 -4 -5 -11t-14 -23.5t-24.5 -28t-35.5 -19t-46 -2.5q-22 4 -52.5 22.5t-45.5 20.5zM508 98l52 -27
q-1 -3 -2.5 -8t-9 -18.5t-17 -23.5t-28 -18t-40.5 -8q-65 0 -88 65q-49 -65 -146 -65q-75 0 -122 40.5t-47 105.5q0 49 24 82t79 51.5t84 24t98 13.5l21 3q-5 111 -106 111q-25 0 -44.5 -6.5t-29.5 -15.5t-16.5 -18t-8.5 -16l-2 -6h-86q7 57 57.5 99t132.5 42
q83 0 132.5 -50t49.5 -154v-173q0 -62 31 -62q12 0 20 8t10 16zM143 138q0 -50 54 -64q56 -15 111 18t57 95v52q-53 -5 -86 -10.5t-68 -16.5t-51.5 -29.5t-16.5 -44.5z" />
    <glyph glyph-name="a.ss02" horiz-adv-x="607" 
d="M442 500h85v-500h-58l-18 61h-17q-53 -66 -144 -66q-96 0 -163 72t-67 183t67 183t163 72q99 0 152 -78v73zM295 77q60 0 103.5 43.5t43.5 129.5t-44 129.5t-103 43.5q-56 0 -101.5 -48t-45.5 -125t45.5 -125t101.5 -48z" />
    <glyph glyph-name="aacute.ss02" horiz-adv-x="607" 
d="M441 680l-104 -125h-61l58 125h107zM442 500h85v-500h-58l-18 61h-17q-53 -66 -144 -66q-96 0 -163 72t-67 183t67 183t163 72q99 0 152 -78v73zM295 77q60 0 103.5 43.5t43.5 129.5t-44 129.5t-103 43.5q-56 0 -101.5 -48t-45.5 -125t45.5 -125t101.5 -48z" />
    <glyph glyph-name="abreve.ss02" horiz-adv-x="607" 
d="M311 573q-57 0 -94.5 39.5t-37.5 87.5h72q0 -19 16 -38t43 -19t42 18.5t15 38.5h73q0 -48 -36 -87.5t-93 -39.5zM442 500h85v-500h-58l-18 61h-17q-53 -66 -144 -66q-96 0 -163 72t-67 183t67 183t163 72q99 0 152 -78v73zM295 77q60 0 103.5 43.5t43.5 129.5t-44 129.5
t-103 43.5q-56 0 -101.5 -48t-45.5 -125t45.5 -125t101.5 -48z" />
    <glyph glyph-name="uni01CE.ss02" horiz-adv-x="607" 
d="M357 556h-83l-99 154h81l53 -90h13l53 90h81zM442 500h85v-500h-58l-18 61h-17q-53 -66 -144 -66q-96 0 -163 72t-67 183t67 183t163 72q99 0 152 -78v73zM295 77q60 0 103.5 43.5t43.5 129.5t-44 129.5t-103 43.5q-56 0 -101.5 -48t-45.5 -125t45.5 -125t101.5 -48z" />
    <glyph glyph-name="acircumflex.ss02" horiz-adv-x="607" 
d="M296 646l-53 -90h-81l99 154h83l99 -154h-81l-53 90h-13zM442 500h85v-500h-58l-18 61h-17q-53 -66 -144 -66q-96 0 -163 72t-67 183t67 183t163 72q99 0 152 -78v73zM295 77q60 0 103.5 43.5t43.5 129.5t-44 129.5t-103 43.5q-56 0 -101.5 -48t-45.5 -125t45.5 -125
t101.5 -48z" />
    <glyph glyph-name="adieresis.ss02" horiz-adv-x="607" 
d="M221 551q-23 0 -39 16.5t-16 38.5q0 23 16 39t39 16t39 -16t16 -39q0 -22 -16 -38.5t-39 -16.5zM391 551q-23 0 -39 16.5t-16 38.5q0 23 16 39t39 16t39 -16t16 -39q0 -22 -16 -38.5t-39 -16.5zM442 500h85v-500h-58l-18 61h-17q-53 -66 -144 -66q-96 0 -163 72t-67 183
t67 183t163 72q99 0 152 -78v73zM295 77q60 0 103.5 43.5t43.5 129.5t-44 129.5t-103 43.5q-56 0 -101.5 -48t-45.5 -125t45.5 -125t101.5 -48z" />
    <glyph glyph-name="agrave.ss02" horiz-adv-x="607" 
d="M363 555h-61l-104 125h107zM442 500h85v-500h-58l-18 61h-17q-53 -66 -144 -66q-96 0 -163 72t-67 183t67 183t163 72q99 0 152 -78v73zM295 77q60 0 103.5 43.5t43.5 129.5t-44 129.5t-103 43.5q-56 0 -101.5 -48t-45.5 -125t45.5 -125t101.5 -48z" />
    <glyph glyph-name="amacron.ss02" horiz-adv-x="607" 
d="M469 650v-70h-330v70h330zM442 500h85v-500h-58l-18 61h-17q-53 -66 -144 -66q-96 0 -163 72t-67 183t67 183t163 72q99 0 152 -78v73zM295 77q60 0 103.5 43.5t43.5 129.5t-44 129.5t-103 43.5q-56 0 -101.5 -48t-45.5 -125t45.5 -125t101.5 -48z" />
    <glyph glyph-name="aogonek.ss02" horiz-adv-x="608" 
d="M555 -135l3 -60q-22 -11 -51 -11q-43 0 -76 28t-33 76q0 69 68 111l-15 52h-17q-53 -66 -144 -66q-96 0 -163 72t-67 183t67 183t163 72q99 0 152 -78v73h85v-500q-7 -4 -17 -10.5t-26.5 -29t-16.5 -46.5q0 -36 32 -48t56 -1zM295 77q60 0 103.5 43.5t43.5 129.5
t-44 129.5t-103 43.5q-56 0 -101.5 -48t-45.5 -125t45.5 -125t101.5 -48z" />
    <glyph glyph-name="aring.ss02" horiz-adv-x="607" 
d="M310 535q-40 0 -68 28t-28 67t28 67t68 28q39 0 67.5 -28t28.5 -67t-28.5 -67t-67.5 -28zM310 669q-16 0 -27 -11.5t-11 -27.5t11 -27.5t27 -11.5t27 11.5t11 27.5t-11 27.5t-27 11.5zM442 500h85v-500h-58l-18 61h-17q-53 -66 -144 -66q-96 0 -163 72t-67 183t67 183
t163 72q99 0 152 -78v73zM295 77q60 0 103.5 43.5t43.5 129.5t-44 129.5t-103 43.5q-56 0 -101.5 -48t-45.5 -125t45.5 -125t101.5 -48z" />
    <glyph glyph-name="atilde.ss02" horiz-adv-x="607" 
d="M235 594q-17 2 -30.5 -7t-18.5 -19l-5 -9l-53 23q2 4 5 10.5t14.5 23t25 28.5t35 19.5t45.5 3.5q22 -4 52 -22.5t45 -20.5q17 -2 30.5 6.5t19.5 18.5l5 10l53 -24q-2 -4 -5 -11t-14 -23.5t-24.5 -28t-35.5 -19t-46 -2.5q-22 4 -52.5 22.5t-45.5 20.5zM442 500h85v-500
h-58l-18 61h-17q-53 -66 -144 -66q-96 0 -163 72t-67 183t67 183t163 72q99 0 152 -78v73zM295 77q60 0 103.5 43.5t43.5 129.5t-44 129.5t-103 43.5q-56 0 -101.5 -48t-45.5 -125t45.5 -125t101.5 -48z" />
    <glyph glyph-name="a.fina.ss02" horiz-adv-x="662" 
d="M591 98l52 -27q-1 -3 -2.5 -8t-8.5 -18.5t-16.5 -23.5t-28 -18t-41.5 -8q-68 0 -88 68h-19q-51 -68 -148 -68t-164 72t-67 183t67 183t164 72q98 0 151 -78v73h85v-372q0 -62 31 -62q12 0 20 8t10 16zM298 77q57 0 100.5 44t43.5 129t-43.5 129t-100.5 44q-60 0 -105 -48
t-45 -125t45 -125t105 -48z" />
    <glyph glyph-name="aacute.fina.ss02" horiz-adv-x="663" 
d="M432 680l-104 -125h-61l58 125h107zM591 98l52 -27q-1 -3 -2.5 -8t-8.5 -18.5t-16.5 -23.5t-28 -18t-41.5 -8q-68 0 -88 68h-19q-51 -68 -148 -68t-164 72t-67 183t67 183t164 72q98 0 151 -78v73h85v-372q0 -62 31 -62q12 0 20 8t10 16zM298 77q57 0 100.5 44t43.5 129
t-43.5 129t-100.5 44q-60 0 -105 -48t-45 -125t45 -125t105 -48z" />
    <glyph glyph-name="abreve.fina.ss02" horiz-adv-x="663" 
d="M311 573q-57 0 -94.5 39.5t-37.5 87.5h72q0 -19 16 -38t43 -19t42 18.5t15 38.5h73q0 -48 -36 -87.5t-93 -39.5zM591 98l52 -27q-1 -3 -2.5 -8t-8.5 -18.5t-16.5 -23.5t-28 -18t-41.5 -8q-68 0 -88 68h-19q-51 -68 -148 -68t-164 72t-67 183t67 183t164 72q98 0 151 -78
v73h85v-372q0 -62 31 -62q12 0 20 8t10 16zM298 77q57 0 100.5 44t43.5 129t-43.5 129t-100.5 44q-60 0 -105 -48t-45 -125t45 -125t105 -48z" />
    <glyph glyph-name="uni01CE.fina.ss02" horiz-adv-x="663" 
d="M345 556h-83l-99 154h81l53 -90h13l53 90h81zM591 98l52 -27q-1 -3 -2.5 -8t-8.5 -18.5t-16.5 -23.5t-28 -18t-41.5 -8q-68 0 -88 68h-19q-51 -68 -148 -68t-164 72t-67 183t67 183t164 72q98 0 151 -78v73h85v-372q0 -62 31 -62q12 0 20 8t10 16zM298 77q57 0 100.5 44
t43.5 129t-43.5 129t-100.5 44q-60 0 -105 -48t-45 -125t45 -125t105 -48z" />
    <glyph glyph-name="acircumflex.fina.ss02" horiz-adv-x="663" 
d="M301 646l-53 -90h-81l99 154h83l99 -154h-81l-53 90h-13zM591 98l52 -27q-1 -3 -2.5 -8t-8.5 -18.5t-16.5 -23.5t-28 -18t-41.5 -8q-68 0 -88 68h-19q-51 -68 -148 -68t-164 72t-67 183t67 183t164 72q98 0 151 -78v73h85v-372q0 -62 31 -62q12 0 20 8t10 16zM298 77
q57 0 100.5 44t43.5 129t-43.5 129t-100.5 44q-60 0 -105 -48t-45 -125t45 -125t105 -48z" />
    <glyph glyph-name="adieresis.fina.ss02" horiz-adv-x="663" 
d="M215 551q-23 0 -39 16.5t-16 38.5q0 23 16 39t39 16t39 -16t16 -39q0 -22 -16 -38.5t-39 -16.5zM385 551q-23 0 -39 16.5t-16 38.5q0 23 16 39t39 16t39 -16t16 -39q0 -22 -16 -38.5t-39 -16.5zM591 98l52 -27q-1 -3 -2.5 -8t-8.5 -18.5t-16.5 -23.5t-28 -18t-41.5 -8
q-68 0 -88 68h-19q-51 -68 -148 -68t-164 72t-67 183t67 183t164 72q98 0 151 -78v73h85v-372q0 -62 31 -62q12 0 20 8t10 16zM298 77q57 0 100.5 44t43.5 129t-43.5 129t-100.5 44q-60 0 -105 -48t-45 -125t45 -125t105 -48z" />
    <glyph glyph-name="agrave.fina.ss02" horiz-adv-x="663" 
d="M347 555h-61l-104 125h107zM591 98l52 -27q-1 -3 -2.5 -8t-8.5 -18.5t-16.5 -23.5t-28 -18t-41.5 -8q-68 0 -88 68h-19q-51 -68 -148 -68t-164 72t-67 183t67 183t164 72q98 0 151 -78v73h85v-372q0 -62 31 -62q12 0 20 8t10 16zM298 77q57 0 100.5 44t43.5 129
t-43.5 129t-100.5 44q-60 0 -105 -48t-45 -125t45 -125t105 -48z" />
    <glyph glyph-name="amacron.fina.ss02" horiz-adv-x="663" 
d="M458 650v-70h-330v70h330zM591 98l52 -27q-1 -3 -2.5 -8t-8.5 -18.5t-16.5 -23.5t-28 -18t-41.5 -8q-68 0 -88 68h-19q-51 -68 -148 -68t-164 72t-67 183t67 183t164 72q98 0 151 -78v73h85v-372q0 -62 31 -62q12 0 20 8t10 16zM298 77q57 0 100.5 44t43.5 129t-43.5 129
t-100.5 44q-60 0 -105 -48t-45 -125t45 -125t105 -48z" />
    <glyph glyph-name="aogonek.fina.ss02" horiz-adv-x="663" 
d="M568 -3q-55 -35 -55 -83q0 -36 32 -48t56 -1l3 -60q-22 -11 -51 -11q-43 0 -76 28t-33 76q0 62 60 106q-34 15 -46 59h-19q-51 -68 -148 -68t-164 72t-67 183t67 183t164 72q98 0 151 -78v73h85v-372q0 -62 31 -62q12 0 20 8t10 16l3 8l52 -27q-1 -7 -5 -17.5t-23 -31
t-47 -25.5zM298 77q57 0 100.5 44t43.5 129t-43.5 129t-100.5 44q-60 0 -105 -48t-45 -125t45 -125t105 -48z" />
    <glyph glyph-name="aring.fina.ss02" horiz-adv-x="663" 
d="M307 535q-40 0 -68 28t-28 67t28 67t68 28q39 0 67.5 -28t28.5 -67t-28.5 -67t-67.5 -28zM307 669q-16 0 -27 -11.5t-11 -27.5t11 -27.5t27 -11.5t27 11.5t11 27.5t-11 27.5t-27 11.5zM591 98l52 -27q-1 -3 -2.5 -8t-8.5 -18.5t-16.5 -23.5t-28 -18t-41.5 -8
q-68 0 -88 68h-19q-51 -68 -148 -68t-164 72t-67 183t67 183t164 72q98 0 151 -78v73h85v-372q0 -62 31 -62q12 0 20 8t10 16zM298 77q57 0 100.5 44t43.5 129t-43.5 129t-100.5 44q-60 0 -105 -48t-45 -125t45 -125t105 -48z" />
    <glyph glyph-name="atilde.fina.ss02" horiz-adv-x="663" 
d="M240 594q-17 2 -30.5 -7t-18.5 -19l-5 -9l-53 23q2 4 5 10.5t14.5 23t25 28.5t35 19.5t45.5 3.5q22 -4 52 -22.5t45 -20.5q17 -2 30.5 6.5t18.5 18.5l6 10l53 -24q-2 -4 -5 -11t-14 -23.5t-24.5 -28t-35.5 -19t-46 -2.5q-22 4 -52.5 22.5t-45.5 20.5zM591 98l52 -27
q-1 -3 -2.5 -8t-8.5 -18.5t-16.5 -23.5t-28 -18t-41.5 -8q-68 0 -88 68h-19q-51 -68 -148 -68t-164 72t-67 183t67 183t164 72q98 0 151 -78v73h85v-372q0 -62 31 -62q12 0 20 8t10 16zM298 77q57 0 100.5 44t43.5 129t-43.5 129t-100.5 44q-60 0 -105 -48t-45 -125t45 -125
t105 -48z" />
    <glyph glyph-name="g.ss02" horiz-adv-x="609" 
d="M471 500h58v-480q0 -38 -12.5 -75.5t-38.5 -72t-75 -56t-113 -21.5q-107 0 -168.5 52t-61.5 112h83q1 -3 3.5 -9t13.5 -20.5t25.5 -25.5t41 -20t58.5 -9q69 0 115 37t46 108v56q-54 -81 -153 -81q-97 0 -164 72t-67 183t67 183t164 72q89 0 144 -68h15zM300 77
q57 0 100.5 44t43.5 129t-43.5 129t-100.5 44q-60 0 -105 -48t-45 -125t45 -125t105 -48z" />
    <glyph glyph-name="uni01F5.ss02" horiz-adv-x="609" 
d="M410 680l-104 -125h-61l58 125h107zM471 500h58v-480q0 -38 -12.5 -75.5t-38.5 -72t-75 -56t-113 -21.5q-107 0 -168.5 52t-61.5 112h83q1 -3 3.5 -9t13.5 -20.5t25.5 -25.5t41 -20t58.5 -9q69 0 115 37t46 108v56q-54 -81 -153 -81q-97 0 -164 72t-67 183t67 183t164 72
q89 0 144 -68h15zM300 77q57 0 100.5 44t43.5 129t-43.5 129t-100.5 44q-60 0 -105 -48t-45 -125t45 -125t105 -48z" />
    <glyph glyph-name="gbreve.ss02" horiz-adv-x="609" 
d="M303 573q-57 0 -94.5 39.5t-37.5 87.5h72q0 -19 16 -38t43 -19t42 18.5t15 38.5h73q0 -48 -36 -87.5t-93 -39.5zM471 500h58v-480q0 -38 -12.5 -75.5t-38.5 -72t-75 -56t-113 -21.5q-107 0 -168.5 52t-61.5 112h83q1 -3 3.5 -9t13.5 -20.5t25.5 -25.5t41 -20t58.5 -9
q69 0 115 37t46 108v56q-54 -81 -153 -81q-97 0 -164 72t-67 183t67 183t164 72q89 0 144 -68h15zM300 77q57 0 100.5 44t43.5 129t-43.5 129t-100.5 44q-60 0 -105 -48t-45 -125t45 -125t105 -48z" />
    <glyph glyph-name="gcaron.ss02" horiz-adv-x="609" 
d="M334 556h-83l-99 154h81l53 -90h13l53 90h81zM471 500h58v-480q0 -38 -12.5 -75.5t-38.5 -72t-75 -56t-113 -21.5q-107 0 -168.5 52t-61.5 112h83q1 -3 3.5 -9t13.5 -20.5t25.5 -25.5t41 -20t58.5 -9q69 0 115 37t46 108v56q-54 -81 -153 -81q-97 0 -164 72t-67 183
t67 183t164 72q89 0 144 -68h15zM300 77q57 0 100.5 44t43.5 129t-43.5 129t-100.5 44q-60 0 -105 -48t-45 -125t45 -125t105 -48z" />
    <glyph glyph-name="gcircumflex.ss02" horiz-adv-x="609" 
d="M280 646l-53 -90h-81l99 154h83l99 -154h-81l-53 90h-13zM471 500h58v-480q0 -38 -12.5 -75.5t-38.5 -72t-75 -56t-113 -21.5q-107 0 -168.5 52t-61.5 112h83q1 -3 3.5 -9t13.5 -20.5t25.5 -25.5t41 -20t58.5 -9q69 0 115 37t46 108v56q-54 -81 -153 -81q-97 0 -164 72
t-67 183t67 183t164 72q89 0 144 -68h15zM300 77q57 0 100.5 44t43.5 129t-43.5 129t-100.5 44q-60 0 -105 -48t-45 -125t45 -125t105 -48z" />
    <glyph glyph-name="gcommaaccent.ss02" horiz-adv-x="609" 
d="M293 551q-26 0 -40.5 20t-14.5 52q0 39 20 74t40 50l19 15l25 -25q-35 -31 -45 -81q20 -2 34.5 -17t14.5 -35q0 -23 -15 -38t-38 -15zM471 500h58v-480q0 -38 -12.5 -75.5t-38.5 -72t-75 -56t-113 -21.5q-107 0 -168.5 52t-61.5 112h83q1 -3 3.5 -9t13.5 -20.5
t25.5 -25.5t41 -20t58.5 -9q69 0 115 37t46 108v56q-54 -81 -153 -81q-97 0 -164 72t-67 183t67 183t164 72q89 0 144 -68h15zM300 77q57 0 100.5 44t43.5 129t-43.5 129t-100.5 44q-60 0 -105 -48t-45 -125t45 -125t105 -48z" />
    <glyph glyph-name="gdotaccent.ss02" horiz-adv-x="609" 
d="M301 577q-27 0 -46 19t-19 45q0 27 19 45.5t46 18.5q26 0 45 -18.5t19 -45.5q0 -26 -19 -45t-45 -19zM471 500h58v-480q0 -38 -12.5 -75.5t-38.5 -72t-75 -56t-113 -21.5q-107 0 -168.5 52t-61.5 112h83q1 -3 3.5 -9t13.5 -20.5t25.5 -25.5t41 -20t58.5 -9q69 0 115 37
t46 108v56q-54 -81 -153 -81q-97 0 -164 72t-67 183t67 183t164 72q89 0 144 -68h15zM300 77q57 0 100.5 44t43.5 129t-43.5 129t-100.5 44q-60 0 -105 -48t-45 -125t45 -125t105 -48z" />
    <glyph glyph-name="i.loclTRK" horiz-adv-x="269" 
d="M145 587q-27 0 -46 19t-19 45q0 27 19 45.5t46 18.5q26 0 45 -18.5t19 -45.5q0 -26 -19 -45t-45 -19zM188 500v-500h-88v500h88z" />
    <glyph glyph-name="y.ss02" horiz-adv-x="589" 
d="M431 500h88v-480q0 -40 -10.5 -76.5t-34 -71.5t-71 -56t-112.5 -21q-108 0 -164.5 51.5t-56.5 112.5h83q1 -3 2.5 -9t10.5 -20.5t22.5 -25.5t39.5 -20t59 -9q68 0 108.5 36.5t40.5 108.5v42q-8 -14 -22.5 -27t-49.5 -26.5t-79 -13.5q-100 0 -147.5 62t-47.5 172v271h88
v-241q0 -101 26 -142.5t93 -41.5q134 0 134 140v285z" />
    <glyph glyph-name="yacute.ss02" horiz-adv-x="589" 
d="M426 680l-104 -125h-61l58 125h107zM431 500h88v-480q0 -40 -10.5 -76.5t-34 -71.5t-71 -56t-112.5 -21q-108 0 -164.5 51.5t-56.5 112.5h83q1 -3 2.5 -9t10.5 -20.5t22.5 -25.5t39.5 -20t59 -9q68 0 108.5 36.5t40.5 108.5v42q-8 -14 -22.5 -27t-49.5 -26.5t-79 -13.5
q-100 0 -147.5 62t-47.5 172v271h88v-241q0 -101 26 -142.5t93 -41.5q134 0 134 140v285z" />
    <glyph glyph-name="ycircumflex.ss02" horiz-adv-x="589" 
d="M295 646l-53 -90h-81l99 154h83l99 -154h-81l-53 90h-13zM431 500h88v-480q0 -40 -10.5 -76.5t-34 -71.5t-71 -56t-112.5 -21q-108 0 -164.5 51.5t-56.5 112.5h83q1 -3 2.5 -9t10.5 -20.5t22.5 -25.5t39.5 -20t59 -9q68 0 108.5 36.5t40.5 108.5v42q-8 -14 -22.5 -27
t-49.5 -26.5t-79 -13.5q-100 0 -147.5 62t-47.5 172v271h88v-241q0 -101 26 -142.5t93 -41.5q134 0 134 140v285z" />
    <glyph glyph-name="ydieresis.ss02" horiz-adv-x="589" 
d="M219 551q-23 0 -39 16.5t-16 38.5q0 23 16 39t39 16t39 -16t16 -39q0 -22 -16 -38.5t-39 -16.5zM389 551q-23 0 -39 16.5t-16 38.5q0 23 16 39t39 16t39 -16t16 -39q0 -22 -16 -38.5t-39 -16.5zM431 500h88v-480q0 -40 -10.5 -76.5t-34 -71.5t-71 -56t-112.5 -21
q-108 0 -164.5 51.5t-56.5 112.5h83q1 -3 2.5 -9t10.5 -20.5t22.5 -25.5t39.5 -20t59 -9q68 0 108.5 36.5t40.5 108.5v42q-8 -14 -22.5 -27t-49.5 -26.5t-79 -13.5q-100 0 -147.5 62t-47.5 172v271h88v-241q0 -101 26 -142.5t93 -41.5q134 0 134 140v285z" />
    <glyph glyph-name="ygrave.ss02" horiz-adv-x="589" 
d="M349 555h-61l-104 125h107zM431 500h88v-480q0 -40 -10.5 -76.5t-34 -71.5t-71 -56t-112.5 -21q-108 0 -164.5 51.5t-56.5 112.5h83q1 -3 2.5 -9t10.5 -20.5t22.5 -25.5t39.5 -20t59 -9q68 0 108.5 36.5t40.5 108.5v42q-8 -14 -22.5 -27t-49.5 -26.5t-79 -13.5
q-100 0 -147.5 62t-47.5 172v271h88v-241q0 -101 26 -142.5t93 -41.5q134 0 134 140v285z" />
    <glyph glyph-name="uni0233.ss02" horiz-adv-x="589" 
d="M463 650v-70h-330v70h330zM431 500h88v-480q0 -40 -10.5 -76.5t-34 -71.5t-71 -56t-112.5 -21q-108 0 -164.5 51.5t-56.5 112.5h83q1 -3 2.5 -9t10.5 -20.5t22.5 -25.5t39.5 -20t59 -9q68 0 108.5 36.5t40.5 108.5v42q-8 -14 -22.5 -27t-49.5 -26.5t-79 -13.5
q-100 0 -147.5 62t-47.5 172v271h88v-241q0 -101 26 -142.5t93 -41.5q134 0 134 140v285z" />
    <glyph glyph-name="uni1E99.ss02" horiz-adv-x="589" 
d="M304 535q-40 0 -68 28t-28 67t28 67t68 28q39 0 67.5 -28t28.5 -67t-28.5 -67t-67.5 -28zM304 669q-16 0 -27 -11.5t-11 -27.5t11 -27.5t27 -11.5t27 11.5t11 27.5t-11 27.5t-27 11.5zM431 500h88v-480q0 -40 -10.5 -76.5t-34 -71.5t-71 -56t-112.5 -21
q-108 0 -164.5 51.5t-56.5 112.5h83q1 -3 2.5 -9t10.5 -20.5t22.5 -25.5t39.5 -20t59 -9q68 0 108.5 36.5t40.5 108.5v42q-8 -14 -22.5 -27t-49.5 -26.5t-79 -13.5q-100 0 -147.5 62t-47.5 172v271h88v-241q0 -101 26 -142.5t93 -41.5q134 0 134 140v285z" />
    <glyph glyph-name="uni1EF9.ss02" horiz-adv-x="589" 
d="M240 594q-17 2 -30.5 -7t-18.5 -19l-5 -9l-53 23q2 4 5 10.5t14.5 23t25 28.5t35 19.5t45.5 3.5q22 -4 52 -22.5t45 -20.5q17 -2 30.5 6.5t18.5 18.5l6 10l53 -24q-2 -4 -5 -11t-14 -23.5t-24.5 -28t-35.5 -19t-46 -2.5q-22 4 -52.5 22.5t-45.5 20.5zM431 500h88v-480
q0 -40 -10.5 -76.5t-34 -71.5t-71 -56t-112.5 -21q-108 0 -164.5 51.5t-56.5 112.5h83q1 -3 2.5 -9t10.5 -20.5t22.5 -25.5t39.5 -20t59 -9q68 0 108.5 36.5t40.5 108.5v42q-8 -14 -22.5 -27t-49.5 -26.5t-79 -13.5q-100 0 -147.5 62t-47.5 172v271h88v-241
q0 -101 26 -142.5t93 -41.5q134 0 134 140v285z" />
    <glyph glyph-name="zero.lf" horiz-adv-x="604" 
d="M303 -5q-105 0 -170 90t-65 236t65 235.5t169 89.5q105 0 172 -90t67 -236q0 -145 -67 -235t-171 -90zM302 81q71 0 112 68t41 170q0 104 -41.5 172.5t-111.5 68.5q-69 0 -108 -68t-39 -172q0 -105 39 -172t108 -67z" />
    <glyph glyph-name="one.lf" horiz-adv-x="361" 
d="M187 0v468h-122v71h73q24 0 39.5 15.5t15.5 40.5v45h82l1 -640h-89z" />
    <glyph glyph-name="two.lf" horiz-adv-x="570" 
d="M322 238q-79 -49 -113.5 -81.5t-34.5 -72.5h311v-84h-405v51q0 42 10 76t23.5 56t38 43t41.5 32t47 28q6 3 9 5q39 22 59.5 35t45 34t35.5 44t11 51q0 45 -29 75t-77 30q-57 0 -90.5 -40t-33.5 -85h-89q0 34 12.5 69.5t37 68t67 53t95.5 20.5q86 0 141.5 -50t55.5 -136
q0 -41 -13 -75t-39.5 -60.5t-47.5 -42t-55 -36.5q-9 -5 -13 -8z" />
    <glyph glyph-name="three.lf" horiz-adv-x="549" 
d="M380 339q41 -17 67.5 -58.5t26.5 -93.5q0 -79 -58 -135.5t-153 -56.5q-93 0 -150.5 53.5t-57.5 130.5h85q3 -39 35 -70.5t87 -31.5q57 0 88.5 34.5t31.5 81.5q0 45 -30 77t-89 32h-33v75h29q46 0 75.5 26t29.5 68q0 39 -26.5 65.5t-73.5 26.5q-40 0 -69 -20t-33 -53h-83
q0 68 55 112t132 44q79 0 131.5 -46.5t52.5 -117.5q0 -43 -19.5 -77.5t-50.5 -53.5v-12z" />
    <glyph glyph-name="four.lf" horiz-adv-x="580" 
d="M413 209h107v-79h-107v-130h-86v130h-282v61l233 450h135v-432zM148 209h179v337h-9z" />
    <glyph glyph-name="five.lf" horiz-adv-x="563" 
d="M278 427q94 0 152 -58t58 -159t-59 -158t-152 -57q-101 0 -156.5 62.5t-55.5 137.5h87q0 -43 35.5 -80.5t92.5 -37.5q54 0 88 35.5t34 98.5q0 60 -33 99.5t-100 39.5q-87 0 -120 -64l-71 23l30 332h350v-84h-278l-18 -164q41 34 116 34z" />
    <glyph glyph-name="six.lf" horiz-adv-x="550" 
d="M282 409q77 0 137.5 -58t60.5 -150q0 -93 -61.5 -149.5t-148.5 -56.5t-148.5 56.5t-61.5 152.5q0 53 24 105q36 77 188 332h105l-157 -247q20 15 62 15zM270 77q54 0 88 34t34 90t-34.5 90.5t-87.5 34.5t-87.5 -34.5t-34.5 -90.5t34.5 -90t87.5 -34z" />
    <glyph glyph-name="seven.lf" horiz-adv-x="505" 
d="M50 641h405v-51q-129 -119 -177 -255.5t-56 -334.5h-89q7 209 61 348t133 209h-277v84z" />
    <glyph glyph-name="eight.lf" horiz-adv-x="582" 
d="M393 347q49 -15 81.5 -59t32.5 -105q0 -84 -60 -136t-157 -52t-156 52t-59 135q0 63 33 106.5t81 58.5v8q-38 16 -61.5 52t-23.5 81q0 69 55 113.5t132 44.5t132 -44.5t55 -113.5q0 -45 -23.5 -81t-61.5 -52v-8zM291 573q-44 0 -72.5 -25t-28.5 -66q0 -43 30.5 -69
t69.5 -26t70.5 26t31.5 69q0 41 -28.5 66t-72.5 25zM289 69q58 0 92.5 36.5t34.5 79.5t-33 79t-93 36t-92 -36t-32 -80q0 -43 32.5 -79t90.5 -36z" />
    <glyph glyph-name="nine.lf" horiz-adv-x="530" 
d="M258 232q-77 0 -137.5 58t-60.5 150q0 93 61.5 149.5t148.5 56.5t148.5 -56.5t61.5 -152.5q0 -53 -24 -105q-36 -77 -188 -332h-105l157 247q-20 -15 -62 -15zM270 564q-54 0 -88 -34t-34 -90t34.5 -90.5t87.5 -34.5t87.5 34.5t34.5 90.5t-34.5 90t-87.5 34z" />
    <glyph glyph-name="zero.case" horiz-adv-x="624" 
d="M313 -5q-117 0 -185 99.5t-68 256.5t68 255.5t184 98.5t184 -98.5t68 -256.5q0 -157 -67.5 -256t-183.5 -99zM312 82q51 0 88.5 40t55 99.5t17.5 127.5q0 109 -43 189t-118 80t-117.5 -80t-42.5 -188q0 -70 17.5 -129.5t55 -99t87.5 -39.5z" />
    <glyph glyph-name="one.case" horiz-adv-x="376" 
d="M202 0v516h-137v73h88q24 0 39.5 15.5t15.5 40.5v55h82l1 -700h-89z" />
    <glyph glyph-name="two.case" horiz-adv-x="590" 
d="M332 278q-41 -31 -60.5 -47t-46 -42.5t-37.5 -51.5t-11 -52h328v-85h-425v51q0 53 16 98.5t47 82t61 61.5t74 54q2 1 21 13.5t24 16.5t22 17t24 20t19 20.5t17 24.5t9.5 25.5t4.5 28.5q0 44 -31.5 75t-85.5 31q-59 0 -95.5 -37t-36.5 -82h-89q0 77 57.5 141t160.5 64
q92 0 151.5 -52t59.5 -137q0 -25 -5 -47.5t-17.5 -43.5t-22.5 -35t-31.5 -33t-31.5 -27.5t-36.5 -27.5t-33.5 -24z" />
    <glyph glyph-name="three.case" horiz-adv-x="572" 
d="M396 374q48 -21 74.5 -68.5t26.5 -103.5q0 -87 -62.5 -147t-158.5 -60q-93 0 -157 54.5t-64 135.5h86q2 -41 41 -73.5t93 -32.5q55 0 92.5 34.5t37.5 93.5t-37 94.5t-100 35.5h-33v79h29q49 0 86 28.5t37 76.5q0 42 -28.5 71.5t-76.5 29.5q-43 0 -74 -24t-35 -63h-81
q0 78 55.5 124t136.5 46q83 0 136 -48.5t53 -127.5q0 -52 -22 -89.5t-55 -56.5v-9z" />
    <glyph glyph-name="four.case" horiz-adv-x="590" 
d="M423 239h107v-79h-107v-160h-86v160h-292v61l243 479h135v-461zM148 239h189v363h-10z" />
    <glyph glyph-name="five.case" horiz-adv-x="586" 
d="M297 476q97 0 155.5 -72.5t58.5 -172.5q0 -103 -61 -169.5t-158 -66.5q-100 0 -163.5 64t-63.5 136h87q4 -43 43 -79.5t99 -36.5q61 0 96 43.5t35 111.5q0 62 -32.5 110.5t-101.5 48.5q-55 0 -88.5 -26.5t-43.5 -59.5l-71 23l30 370h350v-84h-275l-16 -177q45 37 120 37z
" />
    <glyph glyph-name="six.case" horiz-adv-x="570" 
d="M292 448q81 0 144.5 -64.5t63.5 -160.5q0 -97 -66 -162.5t-159 -65.5t-154 65t-61 160q0 82 36 154q12 25 48 84.5t83.5 136t64.5 105.5h105l-171 -267q25 15 66 15zM280 79q56 0 93 40.5t37 103.5q0 61 -36 101t-92 40t-94.5 -40t-38.5 -102t37.5 -102.5t93.5 -40.5z
" />
    <glyph glyph-name="seven.case" horiz-adv-x="525" 
d="M50 700h425v-51q-72 -67 -122 -144t-76.5 -163t-38.5 -165t-16 -177h-89q7 222 60.5 379t143.5 237h-287v84z" />
    <glyph glyph-name="eight.case" horiz-adv-x="602" 
d="M418 372q48 -15 78.5 -62.5t30.5 -108.5q0 -87 -62.5 -146.5t-164.5 -59.5t-163.5 59t-61.5 146q0 62 31 109.5t78 63.5v9q-36 17 -58 58.5t-22 87.5q0 74 57 125.5t140 51.5t140 -51.5t57 -125.5q0 -45 -22 -86.5t-58 -59.5v-10zM301 628q-46 0 -77 -29.5t-31 -75.5
t31 -76.5t76 -30.5t77 31t32 77q0 45 -31 74.5t-77 29.5zM299 76q62 0 99.5 39t37.5 88t-38.5 87t-97.5 38q-60 0 -97 -38.5t-37 -88.5q0 -48 35.5 -86.5t97.5 -38.5z" />
    <glyph glyph-name="nine.case" horiz-adv-x="550" 
d="M268 247q-81 0 -144.5 64.5t-63.5 160.5q0 97 66 162.5t159 65.5t154 -65t61 -160q0 -82 -36 -154q-12 -25 -48 -84.5t-83.5 -136t-64.5 -105.5h-105l171 267q-25 -15 -66 -15zM280 616q-56 0 -93 -40.5t-37 -103.5q0 -61 36 -101t92 -40t94.5 40t38.5 102t-37.5 102.5
t-93.5 40.5z" />
    <glyph glyph-name="zero.lf.case" horiz-adv-x="624" 
d="M313 -5q-117 0 -185 99.5t-68 256.5t68 255.5t184 98.5t184 -98.5t68 -256.5q0 -157 -67.5 -256t-183.5 -99zM312 82q51 0 88.5 40t55 99.5t17.5 127.5q0 109 -43 189t-118 80t-117.5 -80t-42.5 -188q0 -70 17.5 -129.5t55 -99t87.5 -39.5z" />
    <glyph glyph-name="one.lf.case" horiz-adv-x="376" 
d="M202 0v516h-137v73h88q24 0 39.5 15.5t15.5 40.5v55h82l1 -700h-89z" />
    <glyph glyph-name="two.lf.case" horiz-adv-x="590" 
d="M332 278q-41 -31 -60.5 -47t-46 -42.5t-37.5 -51.5t-11 -52h328v-85h-425v51q0 53 16 98.5t47 82t61 61.5t74 54q2 1 21 13.5t24 16.5t22 17t24 20t19 20.5t17 24.5t9.5 25.5t4.5 28.5q0 44 -31.5 75t-85.5 31q-59 0 -95.5 -37t-36.5 -82h-89q0 77 57.5 141t160.5 64
q92 0 151.5 -52t59.5 -137q0 -25 -5 -47.5t-17.5 -43.5t-22.5 -35t-31.5 -33t-31.5 -27.5t-36.5 -27.5t-33.5 -24z" />
    <glyph glyph-name="three.lf.case" horiz-adv-x="572" 
d="M396 374q48 -21 74.5 -68.5t26.5 -103.5q0 -87 -62.5 -147t-158.5 -60q-93 0 -157 54.5t-64 135.5h86q2 -41 41 -73.5t93 -32.5q55 0 92.5 34.5t37.5 93.5t-37 94.5t-100 35.5h-33v79h29q49 0 86 28.5t37 76.5q0 42 -28.5 71.5t-76.5 29.5q-43 0 -74 -24t-35 -63h-81
q0 78 55.5 124t136.5 46q83 0 136 -48.5t53 -127.5q0 -52 -22 -89.5t-55 -56.5v-9z" />
    <glyph glyph-name="four.lf.case" horiz-adv-x="590" 
d="M423 239h107v-79h-107v-160h-86v160h-292v61l243 479h135v-461zM148 239h189v363h-10z" />
    <glyph glyph-name="five.lf.case" horiz-adv-x="586" 
d="M297 476q97 0 155.5 -72.5t58.5 -172.5q0 -103 -61 -169.5t-158 -66.5q-100 0 -163.5 64t-63.5 136h87q4 -43 43 -79.5t99 -36.5q61 0 96 43.5t35 111.5q0 62 -32.5 110.5t-101.5 48.5q-55 0 -88.5 -26.5t-43.5 -59.5l-71 23l30 370h350v-84h-275l-16 -177q45 37 120 37z
" />
    <glyph glyph-name="six.lf.case" horiz-adv-x="570" 
d="M292 448q81 0 144.5 -64.5t63.5 -160.5q0 -97 -66 -162.5t-159 -65.5t-154 65t-61 160q0 82 36 154q12 25 48 84.5t83.5 136t64.5 105.5h105l-171 -267q25 15 66 15zM280 79q56 0 93 40.5t37 103.5q0 61 -36 101t-92 40t-94.5 -40t-38.5 -102t37.5 -102.5t93.5 -40.5z
" />
    <glyph glyph-name="seven.lf.case" horiz-adv-x="525" 
d="M50 700h425v-51q-72 -67 -122 -144t-76.5 -163t-38.5 -165t-16 -177h-89q7 222 60.5 379t143.5 237h-287v84z" />
    <glyph glyph-name="eight.lf.case" horiz-adv-x="602" 
d="M418 372q48 -15 78.5 -62.5t30.5 -108.5q0 -87 -62.5 -146.5t-164.5 -59.5t-163.5 59t-61.5 146q0 62 31 109.5t78 63.5v9q-36 17 -58 58.5t-22 87.5q0 74 57 125.5t140 51.5t140 -51.5t57 -125.5q0 -45 -22 -86.5t-58 -59.5v-10zM301 628q-46 0 -77 -29.5t-31 -75.5
t31 -76.5t76 -30.5t77 31t32 77q0 45 -31 74.5t-77 29.5zM299 76q62 0 99.5 39t37.5 88t-38.5 87t-97.5 38q-60 0 -97 -38.5t-37 -88.5q0 -48 35.5 -86.5t97.5 -38.5z" />
    <glyph glyph-name="nine.lf.case" horiz-adv-x="550" 
d="M268 247q-81 0 -144.5 64.5t-63.5 160.5q0 97 66 162.5t159 65.5t154 -65t61 -160q0 -82 -36 -154q-12 -25 -48 -84.5t-83.5 -136t-64.5 -105.5h-105l171 267q-25 -15 -66 -15zM280 616q-56 0 -93 -40.5t-37 -103.5q0 -61 36 -101t92 -40t94.5 40t38.5 102t-37.5 102.5
t-93.5 40.5z" />
    <glyph glyph-name="zero.osf" horiz-adv-x="584" 
d="M293 -5q-102 0 -167.5 77t-65.5 203t65.5 203t166.5 77t166.5 -77t65.5 -204q0 -126 -65 -202.5t-166 -76.5zM293 74q69 0 108 54.5t39 144.5t-39 146.5t-109 56.5q-69 0 -108 -56.5t-39 -145.5q0 -90 39 -145t109 -55z" />
    <glyph glyph-name="one.osf" horiz-adv-x="336" 
d="M177 0v383h-112v66h63q24 0 39.5 15.5t15.5 40.5v45h77l1 -550h-84z" />
    <glyph glyph-name="two.osf" horiz-adv-x="529" 
d="M302 218q-40 -17 -59.5 -26.5t-43 -26.5t-33 -38t-9.5 -50h298v-77h-385v51q0 46 12 81.5t36.5 60t50 41t62.5 32.5q40 17 59.5 26.5t43.5 25.5t33.5 33.5t9.5 39.5q0 39 -29.5 63t-75.5 24q-51 0 -84 -31t-33 -84h-84q0 71 51.5 131.5t145.5 60.5q80 0 135.5 -45.5
t55.5 -116.5q0 -63 -43 -104t-114 -71z" />
    <glyph glyph-name="three.osf" horiz-adv-x="508" 
d="M357 290q41 -14 66 -50.5t25 -83.5q0 -69 -52 -115t-136 -46q-91 0 -145.5 53.5t-54.5 130.5h78q5 -44 35 -76.5t87 -32.5q48 0 76.5 24.5t28.5 65.5q0 40 -29 67t-93 27h-23v70h19q54 0 83 23t29 58q0 33 -25.5 53.5t-69.5 20.5q-45 0 -72.5 -22t-30.5 -50h-76
q0 58 52.5 103t129.5 45q70 0 120.5 -38.5t50.5 -103.5q0 -76 -73 -115v-8z" />
    <glyph glyph-name="four.osf" horiz-adv-x="543" 
d="M394 189h99v-73h-99v-116h-77v116h-267v55l227 379h117v-361zM148 189h169v278h-7z" />
    <glyph glyph-name="five.osf" horiz-adv-x="543" 
d="M281 370q81 0 136.5 -51t55.5 -134t-56.5 -136.5t-145.5 -53.5q-93 0 -152 56.5t-59 123.5h80q3 -44 40.5 -74.5t89.5 -30.5q55 0 89.5 33t34.5 84q0 49 -32.5 81t-87.5 32q-43 0 -74 -19t-46 -45l-71 23l31 291h329v-77h-260l-17 -142q41 39 115 39z" />
    <glyph glyph-name="six.osf" horiz-adv-x="498" 
d="M257 364q73 0 127 -48.5t54 -133.5q0 -87 -57 -137t-136 -50q-80 0 -137.5 51.5t-57.5 137.5q0 43 17 84t54 98l129 184h93l-155 -204q20 18 69 18zM244 70q51 0 82.5 29.5t31.5 81.5t-32 82t-82 30t-82 -30t-32 -82q0 -51 31.5 -81t82.5 -30z" />
    <glyph glyph-name="seven.osf" horiz-adv-x="485" 
d="M50 550h385v-51q-67 -62 -109 -121t-63 -124.5t-29 -118t-12 -135.5h-82q13 329 177 474h-267v76z" />
    <glyph glyph-name="eight.osf" horiz-adv-x="528" 
d="M359 297q45 -14 72 -52.5t27 -87.5q0 -67 -51 -114.5t-144 -47.5q-92 0 -142.5 47t-50.5 115q0 50 26.5 88t71.5 52v7q-76 33 -76 111q0 62 51 101t121 39t121 -39t51 -100q0 -79 -77 -112v-7zM264 489q-42 0 -67.5 -21.5t-25.5 -57.5q0 -39 26.5 -60t65.5 -21
q38 0 66 21t28 60q0 36 -25 57.5t-68 21.5zM265 62q55 0 84 29t29 69q0 41 -31.5 69.5t-84.5 28.5t-82.5 -28.5t-29.5 -68.5q0 -41 30.5 -70t84.5 -29z" />
    <glyph glyph-name="nine.osf" horiz-adv-x="508" 
d="M241 186q-73 0 -127 48.5t-54 133.5q0 87 57 137t136 50q80 0 137.5 -51.5t57.5 -137.5q0 -43 -17 -84t-54 -98l-129 -184h-93l155 204q-20 -18 -69 -18zM254 480q-51 0 -82.5 -29.5t-31.5 -81.5t32 -82t82 -30t82 30t32 82q0 51 -31.5 81t-82.5 30z" />
    <glyph glyph-name="zero.tf" horiz-adv-x="550" 
d="M275 646q105 0 172 -90t67 -236q0 -145 -67 -235t-171 -90q-105 0 -170 90t-65 236t65 235.5t169 89.5zM275 565q-69 0 -110.5 -70.5t-41.5 -174.5q0 -87 29 -150l215 353q-39 42 -92 42zM275 76q71 0 114.5 70.5t43.5 172.5q0 87 -31 152l-216 -355q38 -40 89 -40z" />
    <glyph glyph-name="one.tf" horiz-adv-x="550" 
d="M341 83h130v-83h-367v83h148v385h-122v71h73q24 0 39.5 15.5t15.5 40.5v45h82z" />
    <glyph glyph-name="two.tf" horiz-adv-x="550" 
d="M313 238q-79 -49 -113.5 -81.5t-34.5 -72.5h311v-84h-405v51q0 42 10 76t23.5 56t38 43t41.5 32t47 28q6 3 9 5q39 22 59.5 35t45 34t35.5 44t11 51q0 45 -29 75t-77 30q-57 0 -90.5 -40t-33.5 -85h-89q0 34 12.5 69.5t37 68t67 53t95.5 20.5q86 0 141.5 -50t55.5 -136
q0 -41 -13 -75t-39.5 -60.5t-47.5 -42t-55 -36.5q-9 -5 -13 -8z" />
    <glyph glyph-name="three.tf" horiz-adv-x="551" 
d="M384 339q41 -17 67.5 -58.5t26.5 -93.5q0 -79 -58 -135.5t-153 -56.5q-93 0 -150.5 53.5t-57.5 130.5h85q3 -39 35 -70.5t87 -31.5q57 0 88.5 34.5t31.5 81.5q0 45 -30 77t-89 32h-33v75h29q46 0 75.5 26t29.5 68q0 39 -26.5 65.5t-73.5 26.5q-40 0 -69 -20t-33 -53h-83
q0 68 55 112t132 44q79 0 131.5 -46.5t52.5 -117.5q0 -43 -19.5 -77.5t-50.5 -53.5v-12z" />
    <glyph glyph-name="four.tf" horiz-adv-x="550" 
d="M403 209h107v-79h-107v-130h-86v130h-282v61l233 450h135v-432zM138 209h179v337h-9z" />
    <glyph glyph-name="five.tf" horiz-adv-x="550" 
d="M283 427q94 0 152 -58t58 -159t-59 -158t-152 -57q-101 0 -156.5 62.5t-55.5 137.5h87q0 -43 35.5 -80.5t92.5 -37.5q54 0 88 35.5t34 98.5q0 60 -33 99.5t-100 39.5q-87 0 -120 -64l-71 23l30 332h350v-84h-278l-18 -164q41 34 116 34z" />
    <glyph glyph-name="six.tf" horiz-adv-x="551" 
d="M295 409q77 0 137.5 -58t60.5 -150q0 -93 -61.5 -149.5t-148.5 -56.5t-148.5 56.5t-61.5 152.5q0 53 24 105q36 77 188 332h105l-157 -247q20 15 62 15zM283 77q54 0 88 34t34 90t-34.5 90.5t-87.5 34.5t-87.5 -34.5t-34.5 -90.5t34.5 -90t87.5 -34z" />
    <glyph glyph-name="seven.tf" horiz-adv-x="550" 
d="M82 641h405v-51q-129 -119 -177 -255.5t-56 -334.5h-89q7 209 61 348t133 209h-277v84z" />
    <glyph glyph-name="eight.tf" horiz-adv-x="550" 
d="M382 347q49 -15 81.5 -59t32.5 -105q0 -84 -60 -136t-157 -52t-156 52t-59 135q0 63 33 106.5t81 58.5v8q-38 16 -61.5 52t-23.5 81q0 69 55 113.5t132 44.5t132 -44.5t55 -113.5q0 -45 -23.5 -81t-61.5 -52v-8zM280 573q-44 0 -72.5 -25t-28.5 -66q0 -43 30.5 -69
t69.5 -26t70.5 26t31.5 69q0 41 -28.5 66t-72.5 25zM278 69q58 0 92.5 36.5t34.5 79.5t-33 79t-93 36t-92 -36t-32 -80q0 -43 32.5 -79t90.5 -36z" />
    <glyph glyph-name="nine.tf" horiz-adv-x="550" 
d="M260 232q-77 0 -137.5 58t-60.5 150q0 93 61.5 149.5t148.5 56.5t148.5 -56.5t61.5 -152.5q0 -53 -24 -105q-36 -77 -188 -332h-105l157 247q-20 -15 -62 -15zM272 564q-54 0 -88 -34t-34 -90t34.5 -90.5t87.5 -34.5t87.5 34.5t34.5 90.5t-34.5 90t-87.5 34z" />
    <glyph glyph-name="zero.tf.case" horiz-adv-x="600" 
d="M300 705q116 0 184 -98.5t68 -256.5q0 -157 -67.5 -256t-183.5 -99q-117 0 -185 99.5t-68 256.5t68 255.5t184 98.5zM300 618q-75 0 -117.5 -80t-42.5 -188q0 -88 29 -160l229 378q-40 50 -98 50zM300 82q51 0 88.5 40t55 99.5t17.5 127.5q0 91 -30 162l-229 -378
q41 -51 98 -51z" />
    <glyph glyph-name="one.tf.case" horiz-adv-x="600" 
d="M356 83h129v-83h-377v83h159v433h-137v73h88q24 0 39.5 15.5t15.5 40.5v55h82z" />
    <glyph glyph-name="two.tf.case" horiz-adv-x="600" 
d="M327 278q-41 -31 -60.5 -47t-46 -42.5t-37.5 -51.5t-11 -52h328v-85h-425v51q0 53 16 98.5t47 82t61 61.5t74 54q2 1 21 13.5t24 16.5t22 17t24 20t19 20.5t17 24.5t9.5 25.5t4.5 28.5q0 44 -31.5 75t-85.5 31q-59 0 -95.5 -37t-36.5 -82h-89q0 77 57.5 141t160.5 64
q92 0 151.5 -52t59.5 -137q0 -25 -5 -47.5t-17.5 -43.5t-22.5 -35t-31.5 -33t-31.5 -27.5t-36.5 -27.5t-33.5 -24z" />
    <glyph glyph-name="three.tf.case" horiz-adv-x="600" 
d="M404 374q48 -21 74.5 -68.5t26.5 -103.5q0 -87 -62.5 -147t-158.5 -60q-93 0 -157 54.5t-64 135.5h86q2 -41 41 -73.5t93 -32.5q55 0 92.5 34.5t37.5 93.5t-37 94.5t-100 35.5h-33v79h29q49 0 86 28.5t37 76.5q0 42 -28.5 71.5t-76.5 29.5q-43 0 -74 -24t-35 -63h-81
q0 78 55.5 124t136.5 46q83 0 136 -48.5t53 -127.5q0 -52 -22 -89.5t-55 -56.5v-9z" />
    <glyph glyph-name="four.tf.case" horiz-adv-x="600" 
d="M429 239h107v-79h-107v-160h-86v160h-292v61l243 479h135v-461zM154 239h189v363h-10z" />
    <glyph glyph-name="five.tf.case" horiz-adv-x="600" 
d="M307 476q97 0 155.5 -72.5t58.5 -172.5q0 -103 -61 -169.5t-158 -66.5q-100 0 -163.5 64t-63.5 136h87q4 -43 43 -79.5t99 -36.5q61 0 96 43.5t35 111.5q0 62 -32.5 110.5t-101.5 48.5q-55 0 -88.5 -26.5t-43.5 -59.5l-71 23l30 370h350v-84h-275l-16 -177q45 37 120 37z
" />
    <glyph glyph-name="six.tf.case" horiz-adv-x="600" 
d="M310 448q81 0 144.5 -64.5t63.5 -160.5q0 -97 -66 -162.5t-159 -65.5t-154 65t-61 160q0 82 36 154q12 25 48 84.5t83.5 136t64.5 105.5h105l-171 -267q25 15 66 15zM298 79q56 0 93 40.5t37 103.5q0 61 -36 101t-92 40t-94.5 -40t-38.5 -102t37.5 -102.5t93.5 -40.5z
" />
    <glyph glyph-name="seven.tf.case" horiz-adv-x="600" 
d="M93 700h425v-51q-72 -67 -122 -144t-76.5 -163t-38.5 -165t-16 -177h-89q7 222 60.5 379t143.5 237h-287v84z" />
    <glyph glyph-name="eight.tf.case" horiz-adv-x="600" 
d="M417 372q48 -15 78.5 -62.5t30.5 -108.5q0 -87 -62.5 -146.5t-164.5 -59.5t-163.5 59t-61.5 146q0 62 31 109.5t78 63.5v9q-36 17 -58 58.5t-22 87.5q0 74 57 125.5t140 51.5t140 -51.5t57 -125.5q0 -45 -22 -86.5t-58 -59.5v-10zM300 628q-46 0 -77 -29.5t-31 -75.5
t31 -76.5t76 -30.5t77 31t32 77q0 45 -31 74.5t-77 29.5zM298 76q62 0 99.5 39t37.5 88t-38.5 87t-97.5 38q-60 0 -97 -38.5t-37 -88.5q0 -48 35.5 -86.5t97.5 -38.5z" />
    <glyph glyph-name="nine.tf.case" horiz-adv-x="600" 
d="M277 247q-81 0 -144.5 64.5t-63.5 160.5q0 97 66 162.5t159 65.5t154 -65t61 -160q0 -82 -36 -154q-12 -25 -48 -84.5t-83.5 -136t-64.5 -105.5h-105l171 267q-25 -15 -66 -15zM289 616q-56 0 -93 -40.5t-37 -103.5q0 -61 36 -101t92 -40t94.5 40t38.5 102t-37.5 102.5
t-93.5 40.5z" />
    <glyph glyph-name="zero.tosf" horiz-adv-x="510" 
d="M255 555q101 0 166.5 -77t65.5 -204q0 -126 -65 -202.5t-166 -76.5q-102 0 -167.5 77t-65.5 203t65.5 203t166.5 77zM255 476q-69 0 -108 -56.5t-39 -145.5q0 -84 33 -136l192 314q-35 24 -78 24zM256 74q69 0 108 54.5t39 144.5q0 83 -33 137l-191 -313q34 -23 77 -23z
" />
    <glyph glyph-name="one.tosf" horiz-adv-x="510" 
d="M328 73h111v-73h-327v73h132v310h-112v66h63q24 0 39.5 15.5t15.5 40.5v45h77z" />
    <glyph glyph-name="two.tosf" horiz-adv-x="510" 
d="M287 218q-40 -17 -59.5 -26.5t-43 -26.5t-33 -38t-9.5 -50h298v-77h-385v51q0 46 12 81.5t36.5 60t50 41t62.5 32.5q40 17 59.5 26.5t43.5 25.5t33.5 33.5t9.5 39.5q0 39 -29.5 63t-75.5 24q-51 0 -84 -31t-33 -84h-84q0 71 51.5 131.5t145.5 60.5q80 0 135.5 -45.5
t55.5 -116.5q0 -63 -43 -104t-114 -71z" />
    <glyph glyph-name="three.tosf" horiz-adv-x="508" 
d="M346 290q41 -14 66 -50.5t25 -83.5q0 -69 -52 -115t-136 -46q-91 0 -145.5 53.5t-54.5 130.5h78q5 -44 35 -76.5t87 -32.5q48 0 76.5 24.5t28.5 65.5q0 40 -29 67t-93 27h-23v70h19q54 0 83 23t29 58q0 33 -25.5 53.5t-69.5 20.5q-45 0 -72.5 -22t-30.5 -50h-76
q0 58 52.5 103t129.5 45q70 0 120.5 -38.5t50.5 -103.5q0 -76 -73 -115v-8z" />
    <glyph glyph-name="four.tosf" horiz-adv-x="510" 
d="M380 189h99v-73h-99v-116h-77v116h-267v55l227 379h117v-361zM134 189h169v278h-7z" />
    <glyph glyph-name="five.tosf" horiz-adv-x="510" 
d="M271 370q81 0 136.5 -51t55.5 -134t-56.5 -136.5t-145.5 -53.5q-93 0 -152 56.5t-59 123.5h80q3 -44 40.5 -74.5t89.5 -30.5q55 0 89.5 33t34.5 84q0 49 -32.5 81t-87.5 32q-43 0 -74 -19t-46 -45l-71 23l31 291h329v-77h-260l-17 -142q41 39 115 39z" />
    <glyph glyph-name="six.tosf" horiz-adv-x="510" 
d="M270 364q73 0 127 -48.5t54 -133.5q0 -87 -57 -137t-136 -50q-80 0 -137.5 51.5t-57.5 137.5q0 43 17 84t54 98l129 184h93l-155 -204q20 18 69 18zM257 70q51 0 82.5 29.5t31.5 81.5t-32 82t-82 30t-82 -30t-32 -82q0 -51 31.5 -81t82.5 -30z" />
    <glyph glyph-name="seven.tosf" horiz-adv-x="510" 
d="M69 550h385v-51q-67 -62 -109 -121t-63 -124.5t-29 -118t-12 -135.5h-82q13 329 177 474h-267v76z" />
    <glyph glyph-name="eight.tosf" horiz-adv-x="510" 
d="M350 297q45 -14 72 -52.5t27 -87.5q0 -67 -51 -114.5t-144 -47.5q-92 0 -142.5 47t-50.5 115q0 50 26.5 88t71.5 52v7q-76 33 -76 111q0 62 51 101t121 39t121 -39t51 -100q0 -79 -77 -112v-7zM255 489q-42 0 -67.5 -21.5t-25.5 -57.5q0 -39 27 -60t65 -21t66 21t28 60
q0 36 -25 57.5t-68 21.5zM256 62q55 0 84 29t29 69q0 41 -31.5 69.5t-84.5 28.5t-82.5 -28.5t-29.5 -68.5q0 -41 30.5 -70t84.5 -29z" />
    <glyph glyph-name="nine.tosf" horiz-adv-x="510" 
d="M239 186q-73 0 -127 48.5t-54 133.5q0 87 57 137t136 50q80 0 137.5 -51.5t57.5 -137.5q0 -43 -17 -84t-54 -98l-129 -184h-93l155 204q-20 -18 -69 -18zM252 480q-51 0 -82.5 -29.5t-31.5 -81.5t32 -82t82 -30t82 30t32 82q0 51 -31.5 81t-82.5 30z" />
    <glyph glyph-name="zero.dnom" horiz-adv-x="404" 
d="M203 -3q-68 0 -110.5 53.5t-42.5 141.5q0 89 42.5 142.5t109.5 53.5t109.5 -54t42.5 -143q0 -88 -42 -141t-109 -53zM203 64q40 0 61.5 34.5t21.5 92.5t-21.5 93t-62.5 35t-62.5 -35t-21.5 -93t22 -92.5t63 -34.5z" />
    <glyph glyph-name="one.dnom" horiz-adv-x="260" 
d="M139 0v258h-89v56h55q17 0 27.5 11t10.5 28v32h66l1 -385h-71z" />
    <glyph glyph-name="two.dnom" horiz-adv-x="378" 
d="M212 147q-45 -27 -64.5 -44t-19.5 -37h191v-66h-269v36q0 39 19.5 70.5t39.5 46.5t54 35q5 3 18 10.5t19 11.5l16.5 11t15 12t10.5 12t8.5 14.5t2.5 15.5q0 22 -17 35t-44 13q-33 0 -52 -18.5t-19 -50.5h-70q0 50 35.5 92t102.5 42q57 0 95 -31t38 -80q0 -24 -8.5 -43
t-28 -36t-32.5 -25.5t-41 -25.5z" />
    <glyph glyph-name="three.dnom" horiz-adv-x="373" 
d="M259 203q28 -9 46 -33t18 -57q0 -49 -37 -82.5t-98 -33.5q-63 0 -100.5 36t-37.5 92h67q2 -28 20.5 -47t51.5 -19q31 0 48 16t17 41q0 26 -18.5 42t-56.5 16h-26v57h23q67 0 67 50q0 44 -56 44q-54 0 -59 -40h-66q0 44 36.5 73.5t90.5 29.5q52 0 86.5 -27t34.5 -71
q0 -55 -51 -81v-6z" />
    <glyph glyph-name="four.dnom" horiz-adv-x="410" 
d="M301 140h59v-59h-59v-81h-64v81h-187v47l159 257h92v-245zM132 140h105v156h-9z" />
    <glyph glyph-name="five.dnom" horiz-adv-x="389" 
d="M206 266q54 0 93.5 -37.5t39.5 -95.5t-40 -95.5t-102 -37.5q-65 0 -106 39t-41 86h68q4 -29 27 -45t51 -16q31 0 53.5 20t22.5 51q0 30 -21.5 50t-56.5 20q-48 0 -68 -37l-60 16l22 204h230v-66h-174l-10 -77q32 21 72 21z" />
    <glyph glyph-name="six.dnom" horiz-adv-x="372" 
d="M198 255q48 0 86 -34.5t38 -93.5q0 -60 -40 -95t-96 -35t-96 36.5t-40 98.5q0 55 47 128l90 125h80l-108 -144q12 14 39 14zM186 59q31 0 50.5 19t19.5 49q0 29 -19.5 48.5t-50.5 19.5t-50.5 -19.5t-19.5 -48.5t19.5 -48.5t50.5 -19.5z" />
    <glyph glyph-name="seven.dnom" horiz-adv-x="359" 
d="M50 385h269v-36q-44 -41 -71 -79.5t-40 -83.5t-17 -83.5t-5 -102.5h-73q4 124 23.5 194t71.5 123h-158v68z" />
    <glyph glyph-name="eight.dnom" horiz-adv-x="372" 
d="M257 208q31 -10 48 -36.5t17 -59.5q0 -49 -36 -82t-101 -33t-100 33t-35 82q0 33 16.5 59.5t47.5 36.5v5q-49 21 -49 77q0 44 36 71t85 27t84.5 -27t35.5 -71q0 -56 -49 -77v-5zM186 327q-24 0 -38 -12.5t-14 -32.5q0 -22 15 -34t36 -12t37 12.5t16 34.5q0 20 -14 32
t-38 12zM185 58q32 0 50 17.5t18 42.5q0 24 -18 42t-50 18q-33 0 -49.5 -18t-16.5 -42q0 -25 17.5 -42.5t48.5 -17.5z" />
    <glyph glyph-name="nine.dnom" horiz-adv-x="372" 
d="M174 128q-48 0 -86 34.5t-38 93.5q0 60 40 95t96 35t96 -36.5t40 -98.5q0 -55 -47 -128l-90 -125h-80l108 144q-12 -14 -39 -14zM186 324q-31 0 -50.5 -19t-19.5 -49q0 -29 19.5 -48.5t50.5 -19.5t50.5 19.5t19.5 48.5t-19.5 48.5t-50.5 19.5z" />
    <glyph glyph-name="zero.numr" horiz-adv-x="404" 
d="M203 252q-68 0 -110.5 53.5t-42.5 141.5q0 89 42.5 142.5t109.5 53.5t109.5 -54t42.5 -143q0 -88 -42 -141t-109 -53zM203 319q40 0 61.5 34.5t21.5 92.5t-21.5 93t-62.5 35t-62.5 -35t-21.5 -93t22 -92.5t63 -34.5z" />
    <glyph glyph-name="one.numr" horiz-adv-x="260" 
d="M139 255v258h-89v56h55q17 0 27.5 11t10.5 28v32h66l1 -385h-71z" />
    <glyph glyph-name="two.numr" horiz-adv-x="378" 
d="M212 402q-45 -27 -64.5 -44t-19.5 -37h191v-66h-269v36q0 39 19.5 70.5t39.5 46.5t54 35q5 3 18 10.5t19 11.5l16.5 11t15 12t10.5 12t8.5 14.5t2.5 15.5q0 22 -17 35t-44 13q-33 0 -52 -18.5t-19 -50.5h-70q0 50 35.5 92t102.5 42q57 0 95 -31t38 -80q0 -24 -8.5 -43
t-28 -36t-32.5 -25.5t-41 -25.5z" />
    <glyph glyph-name="three.numr" horiz-adv-x="373" 
d="M259 458q28 -9 46 -33t18 -57q0 -49 -37 -82.5t-98 -33.5q-63 0 -100.5 36t-37.5 92h67q2 -28 20.5 -47t51.5 -19q31 0 48 16t17 41q0 26 -18.5 42t-56.5 16h-26v57h23q67 0 67 50q0 44 -56 44q-54 0 -59 -40h-66q0 44 36.5 73.5t90.5 29.5q52 0 86.5 -27t34.5 -71
q0 -55 -51 -81v-6z" />
    <glyph glyph-name="four.numr" horiz-adv-x="410" 
d="M301 395h59v-59h-59v-81h-64v81h-187v47l159 257h92v-245zM132 395h105v156h-9z" />
    <glyph glyph-name="five.numr" horiz-adv-x="389" 
d="M206 518q54 0 93.5 -37.5t39.5 -95.5t-40 -95.5t-102 -37.5q-65 0 -106 39t-41 86h68q4 -29 27 -45t51 -16q31 0 53.5 20t22.5 51q0 30 -21.5 50t-56.5 20q-48 0 -68 -37l-60 16l22 204h230v-66h-174l-10 -77q32 21 72 21z" />
    <glyph glyph-name="six.numr" horiz-adv-x="372" 
d="M198 510q48 0 86 -34.5t38 -93.5q0 -60 -40 -95t-96 -35t-96 36.5t-40 98.5q0 55 47 128l90 125h80l-108 -144q12 14 39 14zM186 314q31 0 50.5 19t19.5 49q0 29 -19.5 48.5t-50.5 19.5t-50.5 -19.5t-19.5 -48.5t19.5 -48.5t50.5 -19.5z" />
    <glyph glyph-name="seven.numr" horiz-adv-x="359" 
d="M50 640h269v-36q-44 -41 -71 -79.5t-40 -83.5t-17 -83.5t-5 -102.5h-73q4 124 23.5 194t71.5 123h-158v68z" />
    <glyph glyph-name="eight.numr" horiz-adv-x="372" 
d="M257 463q31 -10 48 -36.5t17 -59.5q0 -49 -36 -82t-101 -33t-100 33t-35 82q0 33 16.5 59.5t47.5 36.5v5q-49 21 -49 77q0 44 36 71t85 27t84.5 -27t35.5 -71q0 -56 -49 -77v-5zM186 582q-24 0 -38 -12.5t-14 -32.5q0 -22 15 -34t36 -12t37 12.5t16 34.5q0 20 -14 32
t-38 12zM185 313q32 0 50 17.5t18 42.5q0 24 -18 42t-50 18q-33 0 -49.5 -18t-16.5 -42q0 -25 17.5 -42.5t48.5 -17.5z" />
    <glyph glyph-name="nine.numr" horiz-adv-x="372" 
d="M174 385q-48 0 -86 34.5t-38 93.5q0 60 40 95t96 35t96 -36.5t40 -98.5q0 -55 -47 -128l-90 -125h-80l108 144q-12 -14 -39 -14zM186 581q-31 0 -50.5 -19t-19.5 -49q0 -29 19.5 -48.5t50.5 -19.5t50.5 19.5t19.5 48.5t-19.5 48.5t-50.5 19.5z" />
    <glyph glyph-name="exclamdown.case" horiz-adv-x="260" 
d="M130 705q25 0 42.5 -17.5t17.5 -42.5t-17.5 -42.5t-42.5 -17.5t-42.5 17.5t-17.5 42.5t17.5 42.5t42.5 17.5zM182 0h-105l20 509h65z" />
    <glyph glyph-name="exclam.alt" horiz-adv-x="262" 
d="M184 525l-24 -345h-60l-23 345q0 5 -2 31.5t-3.5 52t-1.5 36.5q0 25 17.5 41.5t42.5 16.5t42.5 -16.5t17.5 -41.5q0 -6 -6 -120zM132 -5q-25 0 -42.5 17.5t-17.5 42.5t17.5 42.5t42.5 17.5t42.5 -17.5t17.5 -42.5t-17.5 -42.5t-42.5 -17.5z" />
    <glyph glyph-name="exclamdown.alt" horiz-adv-x="262" 
d="M132 505q25 0 42.5 -17.5t17.5 -42.5t-17.5 -42.5t-42.5 -17.5t-42.5 17.5t-17.5 42.5t17.5 42.5t42.5 17.5zM184 -25q6 -114 6 -120q0 -25 -17.5 -41.5t-42.5 -16.5t-42.5 16.5t-17.5 41.5q0 11 1.5 36.5t3.5 52t2 31.5l23 345h60z" />
    <glyph glyph-name="exclamdown.case.alt" horiz-adv-x="262" 
d="M132 703q25 0 42.5 -17.5t17.5 -42.5t-17.5 -42.5t-42.5 -17.5t-42.5 17.5t-17.5 42.5t17.5 42.5t42.5 17.5zM184 173q6 -114 6 -120q0 -25 -17.5 -41.5t-42.5 -16.5t-42.5 16.5t-17.5 41.5q0 11 1.5 36.5t3.5 52t2 31.5l23 345h60z" />
    <glyph glyph-name="questiondown.case" horiz-adv-x="431" 
d="M234 705q25 0 42.5 -17.5t17.5 -42.5t-17.5 -42.5t-42.5 -17.5t-42.5 17.5t-17.5 42.5t17.5 42.5t42.5 17.5zM282 443q0 -48 -18.5 -86t-36.5 -54.5t-48 -37.5q-20 -14 -32 -25t-22 -30.5t-10 -42.5q0 -39 23 -70.5t77 -31.5q87 0 101 97h82q0 -28 -9 -56t-28.5 -55
t-57 -43.5t-86.5 -16.5q-89 0 -136.5 50.5t-47.5 126.5q0 41 15.5 73.5t30.5 47t38 30.5q30 22 44 34t26.5 36t12.5 56v62h82v-64z" />
    <glyph glyph-name="braceleft.case" horiz-adv-x="328" 
d="M197 462q0 -81 -62 -111v-12q62 -30 62 -111v-240q0 -25 14.5 -39.5t40.5 -14.5h11v-60h-29q-52 0 -82 31.5t-30 86.5v236q0 90 -72 90v54q72 0 72 90v236q0 55 30 86.5t82 31.5h29v-60h-11q-26 0 -40.5 -14.5t-14.5 -39.5v-240z" />
    <glyph glyph-name="braceright.case" horiz-adv-x="328" 
d="M206 462q0 -90 72 -90v-54q-72 0 -72 -90v-236q0 -55 -30 -86.5t-82 -31.5h-29v60h11q26 0 40.5 14.5t14.5 39.5v240q0 81 62 111v12q-62 30 -62 111v240q0 25 -14.5 39.5t-40.5 14.5h-11v60h29q52 0 82 -31.5t30 -86.5v-236z" />
    <glyph glyph-name="bracketleft.case" horiz-adv-x="321" 
d="M60 816h171v-73h-93v-796h103v-73h-181v942z" />
    <glyph glyph-name="bracketright.case" horiz-adv-x="311" 
d="M251 816v-942h-181v73h103v796h-93v73h171z" />
    <glyph glyph-name="parenleft.case" horiz-adv-x="338" 
d="M283 -50l-55 -55q-81 88 -129.5 207.5t-48.5 251.5t48.5 252t129.5 208l55 -56q-67 -73 -105.5 -182t-38.5 -222q0 -112 38.5 -221t105.5 -183z" />
    <glyph glyph-name="parenright.case" horiz-adv-x="338" 
d="M40 -50q67 74 105.5 183t38.5 221q0 113 -38.5 222t-105.5 182l55 56q81 -88 129.5 -208t48.5 -252t-48.5 -251.5t-129.5 -207.5z" />
    <glyph glyph-name="emdash.case" horiz-adv-x="880" 
d="M820 389v-76h-760v76h760z" />
    <glyph glyph-name="endash.case" horiz-adv-x="555" 
d="M60 389h435v-76h-435v76z" />
    <glyph glyph-name="hyphen.case" horiz-adv-x="480" 
d="M60 389h360v-76h-360v76z" />
    <glyph glyph-name="uni00AD.case" horiz-adv-x="480" 
d="M60 389h360v-76h-360v76z" />
    <glyph glyph-name="guillemotleft.case" horiz-adv-x="596" 
d="M221 147l-161 202l161 202h100l-163 -202l163 -202h-100zM436 147l-161 202l161 202h100l-163 -202l163 -202h-100z" />
    <glyph glyph-name="guillemotright.case" horiz-adv-x="596" 
d="M160 147h-100l163 202l-163 202h100l161 -202zM375 147h-100l163 202l-163 202h100l161 -202z" />
    <glyph glyph-name="guilsinglleft.case" horiz-adv-x="381" 
d="M221 147l-161 202l161 202h100l-163 -202l163 -202h-100z" />
    <glyph glyph-name="guilsinglright.case" horiz-adv-x="381" 
d="M160 147h-100l163 202l-163 202h100l161 -202z" />
    <glyph glyph-name="bar.case" horiz-adv-x="242" 
d="M162 800v-910h-82v910h82z" />
    <glyph glyph-name="brokenbar.case" horiz-adv-x="242" 
d="M80 800h82v-355h-82v355zM80 -110v355h82v-355h-82z" />
    <glyph glyph-name="at.case" horiz-adv-x="1000" 
d="M500 794q82 0 160 -31t140.5 -87t101 -143.5t38.5 -192.5q0 -94 -47.5 -165t-131.5 -71q-38 0 -78 19t-60 58q-44 -77 -152 -77q-90 0 -152.5 65.5t-62.5 174.5q0 104 63.5 172t151.5 68q83 0 131 -61h16l17 56h58v-330q0 -28 20 -47.5t50 -19.5q34 0 55.5 28.5t28 61
t6.5 68.5q0 171 -105 275.5t-249 104.5q-143 0 -247.5 -104.5t-104.5 -275.5q0 -111 51.5 -197.5t131 -129.5t169.5 -43q114 0 202 49l51 -52q-113 -71 -252 -71q-81 0 -159 31.5t-141 87t-101.5 141t-38.5 184.5q0 105 38 192.5t100.5 143.5t140.5 87t161 31zM476 186
q57 0 94.5 37.5t37.5 110.5q0 81 -37.5 124.5t-94.5 43.5q-49 0 -90.5 -44.5t-41.5 -113.5q0 -75 40.5 -116.5t91.5 -41.5z" />
    <glyph glyph-name="oneSansSerifCircled.ss01" 
d="M415 -5q-147 0 -251 104t-104 251t104 251t251 104q146 0 250.5 -104t104.5 -251t-104.5 -251t-250.5 -104zM415 29q132 0 225.5 94t93.5 227t-93.5 227t-225.5 94q-133 0 -226 -94t-93 -227t93 -227t226 -94zM397 155v258h-89v56h55q17 0 27.5 11t10.5 28v32h66l1 -385
h-71z" />
    </font>
</defs>
</svg>
